<?xml version="1.0" standalone="no"?>
<!DOCTYPE svg PUBLIC "-//W3C//DTD SVG 1.1//EN" "http://www.w3.org/Graphics/SVG/1.1/DTD/svg11.dtd" >
<svg xmlns="http://www.w3.org/2000/svg">
<metadata></metadata>
<defs>
<font id="ars_maquette_probold" horiz-adv-x="1226" >
<font-face units-per-em="2048" ascent="1638" descent="-410" />
<missing-glyph horiz-adv-x="552" />
<glyph unicode="ff" horiz-adv-x="1509" d="M39 856v238h170v45q0 157 102 251.5t293 94.5q113 0 195 -23l-33 -239q-69 22 -125 22q-61 0 -90 -22.5t-29 -75.5v-53h406v45q0 157 102 251.5t293 94.5q113 0 195 -23l-33 -239q-69 22 -125 22q-61 0 -90 -22.5t-29 -75.5v-53h227v-238h-227v-856h-313v856h-406v-856 h-313v856h-170z" />
<glyph unicode="fi" horiz-adv-x="1357" d="M39 856v238h170v45q0 157 102 251.5t293 94.5q113 0 195 -23l-33 -239q-69 22 -125 22q-61 0 -90 -22.5t-29 -75.5v-53h228v-238h-228v-856h-313v856h-170zM915 0v1094h314v-1094h-314zM915 1229v233h314v-233h-314z" />
<glyph unicode="fl" horiz-adv-x="1361" d="M39 856v238h170v45q0 157 102 251.5t293 94.5q113 0 195 -23l-33 -239q-69 22 -125 22q-61 0 -90 -22.5t-29 -75.5v-53h228v-238h-228v-856h-313v856h-170zM918 0v1462h313v-1462h-313z" />
<glyph unicode="fj" horiz-adv-x="1370" d="M39 856v238h170v45q0 157 102 251.5t293 94.5q113 0 195 -23l-33 -239q-69 22 -125 22q-61 0 -90 -22.5t-29 -75.5v-53h228v-238h-228v-856h-313v856h-170zM612 -315l86 229q56 -29 109 -29q62 0 90.5 35t28.5 105v1069h315v-1063q0 -200 -104.5 -302t-288.5 -102 q-140 0 -236 58zM926 1229v233h315v-233h-315z" />
<glyph unicode=" "  horiz-adv-x="552" />
<glyph unicode="&#x09;" horiz-adv-x="552" />
<glyph unicode="&#xa0;" horiz-adv-x="552" />
<glyph unicode="!" horiz-adv-x="610" d="M137 0v307h336v-307h-336zM137 1032v332h336v-332l-86 -575h-164z" />
<glyph unicode="&#x22;" horiz-adv-x="962" d="M70 1268v96h340v-96l-91 -492h-159zM553 1268v96h340v-96l-90 -492h-160z" />
<glyph unicode="#" horiz-adv-x="1329" d="M74 369v176h254l51 276h-223v178h256l67 365h199l-68 -365h224l67 365h199l-68 -365h223v-178h-256l-49 -276h224v-176h-256l-68 -369h-199l68 369h-223l-68 -369h-199l66 369h-221zM528 545h224l51 276h-225z" />
<glyph unicode="$" d="M47 317l250 117q84 -184 283 -209v328q-63 13 -118 30t-120.5 51.5t-111.5 78.5t-77.5 114t-31.5 154q0 180 125.5 291t333.5 117v110h122v-117q134 -19 246.5 -84.5t186.5 -185.5l-224 -129q-87 117 -209 145v-292q459 -108 459 -428q0 -172 -121.5 -291t-337.5 -137 v-175h-122v172q-186 10 -324 98.5t-209 241.5zM412 1008q0 -59 41.5 -91.5t126.5 -54.5v277q-73 -3 -120.5 -35t-47.5 -96zM702 221q86 9 129 49t43 105q0 63 -43.5 96.5t-128.5 52.5v-303z" />
<glyph unicode="%" horiz-adv-x="1648" d="M68 1024q0 151 102.5 254.5t253.5 103.5q149 0 251.5 -103.5t102.5 -254.5q0 -149 -102.5 -252.5t-251.5 -103.5q-150 0 -253 103t-103 253zM272 1024q0 -65 43.5 -109.5t108.5 -44.5q64 0 106.5 44.5t42.5 109.5t-42.5 109.5t-106.5 44.5q-65 0 -108.5 -44.5 t-43.5 -109.5zM342 0l727 1364h238l-729 -1364h-236zM870 340q0 149 103 252.5t252 103.5q150 0 253 -103t103 -253q0 -151 -102.5 -254.5t-253.5 -103.5q-149 0 -252 103.5t-103 254.5zM1075 340q0 -65 43 -109.5t107 -44.5t107.5 44.5t43.5 109.5t-43.5 108.5t-107.5 43.5 t-107 -43.5t-43 -108.5z" />
<glyph unicode="&#x26;" horiz-adv-x="1458" d="M45 377q0 250 291 373q-68 78 -98.5 142.5t-30.5 145.5q0 168 119.5 259.5t312.5 91.5q116 0 209 -33.5t153 -109.5t60 -185q0 -129 -78 -215t-217 -150l225 -229q75 114 101 217l262 -59q-26 -93 -74 -184t-106 -158l278 -283h-410l-90 92q-182 -117 -399 -117 q-140 0 -254 45.5t-184 138t-70 218.5zM350 414q0 -83 66.5 -137t173.5 -54q100 0 188 56l-297 313q-63 -34 -97 -76t-34 -102zM492 1047q0 -51 29 -94t91 -103q92 42 139.5 89t47.5 108q0 59 -42 94t-110 35q-67 0 -111 -33t-44 -96z" />
<glyph unicode="'" horiz-adv-x="479" d="M70 1268v96h340v-96l-91 -492h-159z" />
<glyph unicode="(" horiz-adv-x="634" d="M59 621q0 459 359 874l184 -119q-156 -201 -218 -381t-62 -374t62 -374.5t218 -381.5l-184 -119q-359 415 -359 875z" />
<glyph unicode=")" horiz-adv-x="634" d="M33 -135q156 201 218 381.5t62 374.5t-62 374t-218 381l184 119q358 -418 358 -874q0 -461 -358 -875z" />
<glyph unicode="*" horiz-adv-x="1013" d="M78 895q81 49 148 71t200 46q-131 24 -198.5 46t-149.5 70l112 199q84 -48 137.5 -96t139.5 -148q-44 122 -59 193t-15 168h228q0 -99 -14.5 -170t-57.5 -191q84 99 137.5 147.5t136.5 96.5l115 -199q-83 -48 -150.5 -70t-197.5 -46q131 -25 198 -46.5t150 -70.5 l-115 -197q-81 45 -134 93t-140 149q43 -120 57.5 -190.5t14.5 -169.5h-228q0 97 15 167.5t59 192.5q-90 -103 -142.5 -150t-134.5 -92z" />
<glyph unicode="+" d="M82 492v260h401v401h260v-401h402v-260h-402v-400h-260v400h-401z" />
<glyph unicode="," horiz-adv-x="575" d="M115 -240q69 43 111 104t42 120v16h-149v332h338v-246q0 -142 -56 -247.5t-186 -200.5z" />
<glyph unicode="-" horiz-adv-x="843" d="M104 436v279h635v-279h-635z" />
<glyph unicode="." horiz-adv-x="575" d="M119 0v332h338v-332h-338z" />
<glyph unicode="/" horiz-adv-x="833" d="M63 -221l451 1683h260l-450 -1683h-261z" />
<glyph unicode="0" d="M74 684q0 112 16 210t54.5 191t98.5 159.5t153.5 106.5t213.5 40t215 -40t155.5 -106.5t100 -159t56 -191.5t16.5 -210q0 -112 -16.5 -211t-56 -192t-100 -159.5t-155.5 -106.5t-215 -40t-213.5 40t-153.5 106.5t-98.5 159.5t-54.5 192t-16 211zM399 684 q0 -98 8.5 -171.5t30.5 -139t65.5 -100.5t106.5 -35t106.5 35t66 100t31.5 139.5t9 171.5q0 98 -9 172t-31.5 138.5t-66 99t-106.5 34.5q-51 0 -89.5 -24t-61 -63t-36.5 -98t-19 -120t-5 -139z" />
<glyph unicode="1" d="M141 1192q310 51 439 172h241v-1094h305v-270h-950v270h324v750q-148 -54 -320 -72z" />
<glyph unicode="2" d="M61 1071q191 318 535 318q221 0 359.5 -119t138.5 -324q0 -163 -124.5 -323.5t-389.5 -331.5h563v-291h-1041v233q378 283 514 426t136 269q0 83 -52.5 130.5t-134.5 47.5q-77 0 -142 -45.5t-106 -130.5z" />
<glyph unicode="3" d="M41 326l268 123q39 -95 116.5 -147t184.5 -52q101 0 155 45t54 119t-56.5 112.5t-166.5 38.5h-121v256h119q96 0 144 42.5t48 109.5t-48.5 103t-135.5 36q-94 0 -169.5 -45.5t-117.5 -130.5l-243 139q195 314 555 314q216 0 348.5 -104.5t132.5 -270.5q0 -101 -51 -175.5 t-139 -117.5q108 -38 170.5 -123t62.5 -195q0 -86 -37 -163t-104.5 -136t-171.5 -94t-230 -35q-208 0 -349 92t-218 259z" />
<glyph unicode="4" d="M49 276v238q113 212 177.5 443t64.5 407h313q0 -174 -66.5 -390.5t-185.5 -430.5h336v528h313v-528h179v-267h-179v-276h-321v276h-631z" />
<glyph unicode="5" d="M63 268l261 142q81 -154 264 -154q96 0 160.5 56t64.5 149q0 92 -62 148.5t-169 56.5q-154 0 -248 -117l-191 78l50 737h876v-293h-623l-26 -229q93 67 250 67q201 0 336 -119.5t135 -324.5q0 -95 -34 -181t-98.5 -156t-171 -111.5t-239.5 -41.5q-362 0 -535 293z" />
<glyph unicode="6" d="M90 508q0 124 32 243t92.5 225.5t135.5 200t172 187.5h455q-340 -250 -459 -479q71 61 213 61q192 0 315 -125.5t123 -335.5q0 -229 -148.5 -369.5t-389.5 -140.5q-251 0 -396 138.5t-145 394.5zM422 479q0 -105 54 -168t155 -63q97 0 150 63.5t53 169.5 q0 105 -52.5 166.5t-150.5 61.5q-101 0 -155 -62.5t-54 -167.5z" />
<glyph unicode="7" d="M88 1071v293h1055v-225q-48 -66 -69.5 -96.5t-77 -111t-87 -136t-80 -142t-77.5 -160t-58 -159t-42 -170t-11 -164.5h-362q3 131 40 271t88.5 254t119 225t123.5 185.5t110 135.5h-672z" />
<glyph unicode="8" d="M68 391q0 117 60 204.5t165 129.5q-77 40 -127.5 113.5t-50.5 179.5q0 119 69 204.5t180 126t248 40.5t248.5 -40.5t181.5 -126t70 -204.5q0 -104 -50 -178.5t-130 -114.5q107 -42 167 -129.5t60 -204.5q0 -181 -144.5 -298.5t-402.5 -117.5q-129 0 -233.5 32.5 t-171.5 89t-103 132t-36 162.5zM399 412q0 -90 59 -137.5t154 -47.5q96 0 154.5 47.5t58.5 139.5q0 89 -57 136.5t-154 47.5q-99 0 -157 -48t-58 -138zM442 985q0 -80 48 -115.5t122 -35.5q75 0 123.5 35.5t48.5 115.5q0 78 -49 116t-123 38t-122 -38t-48 -116z" />
<glyph unicode="9" d="M57 879q0 228 149 369t392 141q250 0 395.5 -139t145.5 -394q0 -125 -32.5 -243.5t-94 -225.5t-135.5 -199t-172 -188h-455q335 244 461 477q-77 -61 -215 -61q-192 0 -315.5 126.5t-123.5 336.5zM393 883q0 -105 53 -166.5t152 -61.5q100 0 153.5 63t53.5 167 q0 105 -53.5 168t-153.5 63q-99 0 -152 -63.5t-53 -169.5z" />
<glyph unicode=":" horiz-adv-x="624" d="M143 0v332h338v-332h-338zM143 762v332h338v-332h-338z" />
<glyph unicode=";" horiz-adv-x="624" d="M139 -240q69 44 111.5 104.5t42.5 119.5v16h-150v332h338v-246q0 -142 -55.5 -247.5t-185.5 -200.5zM143 762v332h338v-332h-338z" />
<glyph unicode="&#x3c;" d="M184 625l627 624l182 -180l-442 -444l442 -443l-182 -182z" />
<glyph unicode="=" d="M82 274v261h1063v-261h-1063zM82 711v260h1063v-260h-1063z" />
<glyph unicode="&#x3e;" d="M236 182l444 443l-444 444l180 180l626 -624l-626 -625z" />
<glyph unicode="?" horiz-adv-x="1161" d="M59 1198q215 193 504 193q227 0 366.5 -117.5t139.5 -321.5q0 -92 -33.5 -169.5t-91 -131.5t-127.5 -91t-151 -58v-45h-316v309q49 -14 119 -14q121 0 192.5 47.5t71.5 142.5q0 82 -57 127t-148 45q-175 0 -295 -123zM342 0v301h342v-301h-342z" />
<glyph unicode="@" horiz-adv-x="1759" d="M84 616q0 163 57.5 305t161 246t256.5 164t336 60q178 0 328 -59t251 -162t157.5 -244.5t56.5 -304.5q0 -193 -96.5 -312t-260.5 -119q-77 0 -145 31.5t-105 102.5q-88 -136 -260 -136q-165 0 -262.5 119.5t-97.5 302.5q0 185 98.5 304.5t261.5 119.5q122 0 205 -100v84 h242v-563q0 -127 106 -127q79 0 122.5 80t43.5 208q0 189 -73.5 332.5t-219 226t-346.5 82.5q-147 0 -269.5 -51t-203.5 -139t-125.5 -204t-44.5 -247q0 -178 75.5 -322t223.5 -230.5t344 -86.5q200 0 332 95l61 -123q-177 -105 -401 -105q-182 0 -335 59t-256.5 162 t-160.5 245t-57 306zM709 610q0 -95 41 -158t116 -63q78 0 119 62t41 159q0 96 -42 160t-120 64q-73 0 -114 -64t-41 -160z" />
<glyph unicode="A" horiz-adv-x="1404" d="M2 0l506 1364h391l504 -1364h-365l-94 291h-491l-95 -291h-356zM526 553h342l-170 539z" />
<glyph unicode="B" horiz-adv-x="1386" d="M147 0v1364h648q223 0 346 -93.5t123 -258.5q0 -93 -47.5 -170t-131.5 -121q109 -44 167.5 -129t58.5 -195q0 -182 -126 -289.5t-349 -107.5h-689zM475 281h336q76 0 120 38.5t44 106.5q0 67 -43 107t-119 40h-338v-292zM475 831h299q74 0 117 35t43 97q0 120 -164 120 h-295v-252z" />
<glyph unicode="C" horiz-adv-x="1404" d="M70 684q0 315 190.5 510t493.5 195q190 0 344 -82.5t256 -257.5l-258 -150q-119 207 -334 207q-163 0 -259.5 -118t-96.5 -302q0 -187 96.5 -307.5t259.5 -120.5q112 0 190.5 56t139.5 169l270 -141q-95 -176 -247.5 -271.5t-358.5 -95.5q-305 0 -495.5 196t-190.5 513z " />
<glyph unicode="D" horiz-adv-x="1484" d="M147 0v1364h566q167 0 301 -52t220.5 -144t132.5 -216t46 -270t-46 -270t-132.5 -216t-220.5 -144t-301 -52h-566zM475 291h238q176 0 269 104t93 287t-93 286t-269 103h-238v-780z" />
<glyph unicode="E" horiz-adv-x="1292" d="M147 0v1364h1041v-293h-715v-231h623v-260h-623v-289h735v-291h-1061z" />
<glyph unicode="F" horiz-adv-x="1251" d="M147 0v1364h1053v-293h-727v-262h623v-260h-623v-549h-326z" />
<glyph unicode="G" horiz-adv-x="1484" d="M70 686q0 319 190.5 511t505.5 192q197 0 349 -87t243 -245l-268 -152q-107 201 -326 201q-170 0 -263 -116t-93 -302q0 -206 96 -320t264 -114q126 0 216.5 62t105.5 171h-318v261h647q11 -60 11 -123q0 -135 -43.5 -252.5t-126 -206.5t-210 -140t-286.5 -51 q-312 0 -503 195.5t-191 515.5z" />
<glyph unicode="H" horiz-adv-x="1511" d="M147 0v1364h328v-504h559v504h330v-1364h-330v569h-559v-569h-328z" />
<glyph unicode="I" horiz-adv-x="620" d="M147 0v1364h326v-1364h-326z" />
<glyph unicode="J" horiz-adv-x="1126" d="M4 268l268 146q67 -152 209 -152q89 0 136 53t47 152v897h327v-889q0 -243 -134.5 -371.5t-364.5 -128.5q-170 0 -295 73t-193 220z" />
<glyph unicode="K" horiz-adv-x="1423" d="M147 0v1364h326v-594l512 594h393l-479 -549l531 -815h-383l-373 578l-201 -232v-346h-326z" />
<glyph unicode="L" horiz-adv-x="1189" d="M147 0v1364h326v-1073h690v-291h-1016z" />
<glyph unicode="M" horiz-adv-x="1853" d="M147 0v1364h471l312 -956l309 956h467v-1364h-320v1020l-331 -1020h-262l-328 1012v-1012h-318z" />
<glyph unicode="N" horiz-adv-x="1511" d="M147 0v1364h408l498 -913v913h311v-1364h-391l-512 934v-934h-314z" />
<glyph unicode="O" horiz-adv-x="1533" d="M70 682q0 147 48 276t136 225t220 151t292 55q128 0 239.5 -35.5t195.5 -100t144 -152.5t90.5 -194.5t30.5 -224.5q0 -148 -48.5 -277t-137 -224.5t-221.5 -150.5t-293 -55q-212 0 -372 95t-242 254t-82 358zM408 682q0 -177 94.5 -292.5t263.5 -115.5t264.5 115.5 t95.5 292.5q0 176 -95.5 292t-264.5 116q-113 0 -195.5 -55.5t-122.5 -147t-40 -205.5z" />
<glyph unicode="P" horiz-adv-x="1337" d="M147 0v1364h633q240 0 380 -127t140 -340q0 -212 -140 -337.5t-380 -125.5h-305v-434h-328zM475 727h301q90 0 141.5 44t51.5 128q0 85 -51.5 128.5t-141.5 43.5h-301v-344z" />
<glyph unicode="Q" horiz-adv-x="1533" d="M70 684q0 147 48 276t136 224t220 150t292 55t293 -55t221.5 -150t137 -224t48.5 -276q0 -150 -50.5 -282t-143.5 -228l147 -170l-211 -174l-159 197q-132 -52 -283 -52q-160 0 -292 55t-220 151t-136 225.5t-48 277.5zM408 684q0 -115 40 -207t122.5 -147.5t195.5 -55.5 q42 0 74 13l-121 149l190 154l142 -166q75 107 75 260q0 176 -95.5 291t-264.5 115t-263.5 -115t-94.5 -291z" />
<glyph unicode="R" horiz-adv-x="1390" d="M147 0v1364h641q247 0 379.5 -118.5t132.5 -315.5q0 -141 -73 -242t-180 -151l292 -537h-364l-246 473h-254v-473h-328zM475 733h307q81 0 134 46t53 124q0 79 -53 123.5t-134 44.5h-307v-338z" />
<glyph unicode="S" horiz-adv-x="1304" d="M35 317l256 136q123 -211 391 -211q108 0 173 38t65 103q0 80 -95 118q-50 19 -202 46q-92 16 -161.5 35t-139 52.5t-114 77t-72 109.5t-27.5 150q0 193 144.5 305.5t383.5 112.5q176 0 328 -66.5t249 -210.5l-243 -151q-59 83 -148.5 123t-191.5 40q-90 0 -143.5 -32.5 t-53.5 -96.5q0 -23 9 -42t28 -32.5t40.5 -23.5t54.5 -18.5t61 -14.5t69 -13q11 -2 17 -3q78 -14 139.5 -29.5t124.5 -39t108.5 -55t82 -73t55 -98t18.5 -125.5q0 -199 -152.5 -326t-420.5 -127q-221 0 -386 90t-247 252z" />
<glyph unicode="T" horiz-adv-x="1288" d="M57 1071v293h1174v-293h-424v-1071h-328v1071h-422z" />
<glyph unicode="U" horiz-adv-x="1460" d="M133 528v836h328v-836q0 -125 68.5 -190.5t201.5 -65.5q130 0 200 66t70 190v836h326v-836q0 -262 -162 -407.5t-434 -145.5q-275 0 -436.5 145t-161.5 408z" />
<glyph unicode="V" horiz-adv-x="1370" d="M0 1364h356l328 -985l324 985h360l-504 -1364h-358z" />
<glyph unicode="W" horiz-adv-x="1980" d="M37 1364h354l203 -907l250 907h293l249 -909l203 909h361l-379 -1364h-354l-230 860l-231 -860h-357z" />
<glyph unicode="X" horiz-adv-x="1425" d="M-4 0l506 711l-461 653h391l283 -434l282 434h385l-458 -653l506 -711h-398l-321 479l-322 -479h-393z" />
<glyph unicode="Y" horiz-adv-x="1370" d="M-4 1364h381l309 -543l311 543h379l-528 -840v-524h-326v520z" />
<glyph unicode="Z" horiz-adv-x="1306" d="M76 0v252l678 819h-650v293h1104v-238l-686 -835h705v-291h-1151z" />
<glyph unicode="[" horiz-adv-x="667" d="M131 -221v1683h514v-196h-252v-1291h252v-196h-514z" />
<glyph unicode="\" horiz-adv-x="833" d="M59 1462h260l451 -1683h-260z" />
<glyph unicode="]" horiz-adv-x="667" d="M23 -25h251v1291h-251v196h514v-1683h-514v196z" />
<glyph unicode="^" d="M33 889l475 475h217l473 -475l-180 -182l-402 401l-401 -401z" />
<glyph unicode="_" horiz-adv-x="1189" d="M-16 -154h1222v-102h-1222v102z" />
<glyph unicode="`" horiz-adv-x="661" d="M102 1462l256 43q40 -100 170 -278l-116 -60q-92 47 -183 130t-127 165z" />
<glyph unicode="a" horiz-adv-x="1200" d="M57 315q0 300 402 338q81 8 117 12.5t78 15.5t56.5 29.5t14.5 47.5q0 30 -16 51.5t-43.5 32.5t-56 15.5t-60.5 4.5q-87 0 -179.5 -26.5t-166.5 -75.5l-105 233q218 125 473 125q469 0 469 -381v-467q0 -37 14 -52t44 -15q36 0 53 14l33 -197q-57 -36 -170 -36 q-82 0 -145 35t-87 104q-55 -77 -148 -112.5t-198 -35.5q-171 0 -275 89.5t-104 250.5zM369 326q0 -61 41.5 -92t111.5 -31q91 0 147 50.5t56 149.5v125q-11 -13 -26 -23t-25.5 -15.5t-35 -11.5t-33 -8t-41.5 -7t-40 -6q-35 -5 -58 -12t-47.5 -21t-37 -38.5t-12.5 -59.5z " />
<glyph unicode="b" horiz-adv-x="1341" d="M129 0v1462h313v-493q134 149 336 149q226 0 362 -161t136 -410q0 -162 -59.5 -291.5t-174 -205t-264.5 -75.5q-201 0 -336 150v-125h-313zM442 545q0 -131 66.5 -215t189.5 -84q120 0 183 84t63 215t-63 217t-183 86q-121 0 -188.5 -87t-67.5 -216z" />
<glyph unicode="c" horiz-adv-x="1153" d="M63 545q0 164 68.5 293.5t197 204.5t296.5 75q170 0 291.5 -75t195.5 -203l-242 -144q-78 156 -229 156q-115 0 -181.5 -85t-66.5 -220q0 -137 69 -221t187 -84q79 0 134.5 38t101.5 111l227 -151q-73 -121 -193.5 -193t-289.5 -72q-170 0 -300 74.5t-198 203.5t-68 292z " />
<glyph unicode="d" horiz-adv-x="1341" d="M66 547q0 249 135.5 410t361.5 161q203 0 334 -149v493h315v-1462h-315v125q-132 -150 -334 -150q-150 0 -264 75.5t-173.5 205t-59.5 291.5zM395 545q0 -130 64 -214.5t184 -84.5q122 0 188 84.5t66 214.5q0 131 -66.5 217t-187.5 86q-120 0 -184 -86t-64 -217z" />
<glyph unicode="e" horiz-adv-x="1255" d="M66 541q0 254 154 415.5t419 161.5q257 0 406 -154t149 -405q0 -19 -6 -94h-787q7 -110 81 -166.5t196 -56.5q185 0 301 129l201 -189q-207 -207 -521 -207q-143 0 -257 43t-187 119.5t-111 179t-38 224.5zM403 678h482q-9 100 -74.5 153.5t-165.5 53.5 q-103 0 -168.5 -56.5t-73.5 -150.5z" />
<glyph unicode="f" horiz-adv-x="790" d="M39 856v238h170v45q0 157 102 251.5t293 94.5q113 0 195 -23l-33 -239q-69 22 -125 22q-61 0 -90 -22.5t-29 -75.5v-53h228v-238h-228v-856h-313v856h-170z" />
<glyph unicode="g" horiz-adv-x="1345" d="M70 590q0 225 138 376.5t357 151.5q210 0 338 -149v125h316v-877q0 -140 -27.5 -240t-97.5 -178q-161 -176 -510 -176q-277 0 -478 119l115 244q151 -101 357 -101q71 0 128 14t102 43t70 79t25 118v76q-126 -147 -340 -147q-145 0 -258.5 69.5t-174 188t-60.5 264.5z M401 594q0 -119 64.5 -194.5t183.5 -75.5q118 0 187 76.5t69 193.5t-67.5 191.5t-188.5 74.5q-119 0 -183.5 -74t-64.5 -192z" />
<glyph unicode="h" horiz-adv-x="1257" d="M129 0v1462h313v-493q64 72 149 110.5t179 38.5q179 0 274 -109.5t95 -283.5v-725h-314v653q0 187 -170 187q-92 0 -152.5 -57.5t-60.5 -159.5v-623h-313z" />
<glyph unicode="i" horiz-adv-x="571" d="M129 0v1094h313v-1094h-313zM129 1229v233h313v-233h-313z" />
<glyph unicode="j" horiz-adv-x="573" d="M-184 -315l86 229q56 -29 108 -29q62 0 90.5 35t28.5 105v1069h315v-1063q0 -200 -104.5 -302t-288.5 -102q-139 0 -235 58zM129 1229v233h315v-233h-315z" />
<glyph unicode="k" horiz-adv-x="1271" d="M129 0v1462h313v-825l414 457h369l-402 -428l449 -666h-373l-289 457l-168 -178v-279h-313z" />
<glyph unicode="l" horiz-adv-x="575" d="M131 0v1462h313v-1462h-313z" />
<glyph unicode="m" horiz-adv-x="1912" d="M129 0v1094h313v-123q132 147 318 147q226 0 303 -184q71 94 167.5 139t199.5 45q179 0 271.5 -108.5t92.5 -282.5v-727h-313v655q0 39 -7 69t-24 58t-51 43t-84 15q-87 0 -142 -56.5t-55 -158.5v-625h-313v655q0 39 -7 69t-24 58t-51 43t-84 15q-87 0 -142 -56.5 t-55 -158.5v-625h-313z" />
<glyph unicode="n" horiz-adv-x="1257" d="M129 0v1094h313v-125q64 72 149 110.5t179 38.5q179 0 274 -109.5t95 -283.5v-725h-314v653q0 187 -170 187q-92 0 -152.5 -57.5t-60.5 -159.5v-623h-313z" />
<glyph unicode="o" horiz-adv-x="1292" d="M66 545q0 258 157.5 415.5t421.5 157.5t423 -157.5t159 -415.5q0 -256 -159 -413t-423 -157t-421.5 156.5t-157.5 413.5zM397 547q0 -139 65.5 -224t182.5 -85q118 0 183 85t65 224t-65 224t-183 85q-117 0 -182.5 -85t-65.5 -224z" />
<glyph unicode="p" horiz-adv-x="1341" d="M129 -356v1450h313v-125q134 149 336 149q150 0 264.5 -75.5t174 -205t59.5 -290.5q0 -249 -136 -410.5t-362 -161.5q-200 0 -336 148v-479h-313zM442 547q0 -129 67.5 -215t188.5 -86q120 0 183 85.5t63 215.5q0 131 -63 216t-183 85q-123 0 -189.5 -85t-66.5 -216z" />
<glyph unicode="q" horiz-adv-x="1341" d="M66 547q0 161 59.5 290t173.5 205t264 76q203 0 334 -149v125h315v-1450h-315v479q-133 -148 -334 -148q-226 0 -361.5 161.5t-135.5 410.5zM395 549q0 -130 64 -216.5t184 -86.5q121 0 187.5 86t66.5 217q0 130 -66 214.5t-188 84.5q-120 0 -184 -84.5t-64 -214.5z" />
<glyph unicode="r" horiz-adv-x="876" d="M129 0v1094h313v-164q52 85 128.5 134.5t162.5 49.5q84 0 141 -33l-81 -315q-61 33 -123 33q-99 0 -163.5 -75.5t-64.5 -195.5v-528h-313z" />
<glyph unicode="s" horiz-adv-x="1155" d="M35 242l213 141q58 -84 155 -125t203 -41q84 0 130 24t46 66q0 23 -12.5 40t-30 27.5t-52.5 19.5t-61.5 13t-76.5 11q-83 11 -146.5 26.5t-123 42.5t-97.5 64t-61 92t-23 125q0 114 63.5 194.5t166 118t231.5 37.5q171 0 304 -59.5t216 -147.5l-186 -166 q-57 59 -143.5 96.5t-190.5 37.5q-68 0 -114 -22.5t-46 -59.5q0 -22 14 -38t42.5 -25.5t61 -16t79.5 -14.5q30 -4 45 -7q105 -17 180.5 -41t139.5 -63.5t96.5 -100.5t32.5 -143q0 -171 -135.5 -272t-366.5 -101q-183 0 -326.5 67t-226.5 200z" />
<glyph unicode="t" horiz-adv-x="903" d="M33 856v238h172v270h315v-270h311v-238h-311v-494q0 -114 113 -114q73 0 133 49l117 -225q-129 -97 -303 -97q-220 0 -312 138q-63 92 -63 252v491h-172z" />
<glyph unicode="u" horiz-adv-x="1257" d="M119 369v725h313v-654q0 -186 170 -186q92 0 152.5 57.5t60.5 159.5v623h313v-1094h-313v123q-138 -148 -328 -148q-179 0 -273.5 110t-94.5 284z" />
<glyph unicode="v" horiz-adv-x="1173" d="M2 1094h350l238 -729l235 729h346l-423 -1094h-322z" />
<glyph unicode="w" horiz-adv-x="1697" d="M35 1094h342l147 -688l199 688h258l197 -688l147 688h340l-305 -1094h-318l-192 686l-197 -686h-317z" />
<glyph unicode="x" horiz-adv-x="1214" d="M8 0l387 569l-350 525h369l196 -332l193 332h368l-354 -527l387 -567h-381l-217 371l-219 -371h-379z" />
<glyph unicode="y" horiz-adv-x="1173" d="M0 1094h358l250 -684l226 684h335l-428 -1127q-69 -180 -162 -262t-251 -82q-161 0 -291 88l119 209q62 -43 125 -43q49 0 81.5 26.5t57.5 78.5l26 51z" />
<glyph unicode="z" horiz-adv-x="1112" d="M74 0v225l499 598h-475v271h920v-213l-510 -611h526v-270h-960z" />
<glyph unicode="{" horiz-adv-x="800" d="M29 522v197h98q79 0 110 40.5t31 114.5v252q0 161 93.5 250.5t248.5 89.5h172v-196h-94q-84 0 -121 -46t-37 -132v-168q0 -235 -194 -303q194 -65 194 -302v-169q0 -179 158 -179h94v-196h-172q-155 0 -248.5 89.5t-93.5 250.5v252q0 74 -31 114.5t-110 40.5h-98z" />
<glyph unicode="|" horiz-adv-x="503" d="M131 -221v1683h242v-1683h-242z" />
<glyph unicode="}" horiz-adv-x="800" d="M18 -29h95q85 0 121 46t36 133v167q0 235 195 304q-97 33 -146 111t-49 190v170q0 87 -36 132.5t-121 45.5h-95v196h175q155 0 247 -89t92 -251v-252q0 -74 32 -114.5t112 -40.5h96v-197h-96q-79 0 -111.5 -41t-32.5 -114v-252q0 -162 -92 -251t-247 -89h-175v196z" />
<glyph unicode="~" horiz-adv-x="1247" d="M63 518q89 156 181.5 233.5t206.5 77.5q87 0 167 -51q12 -7 33.5 -21t29 -18.5t23.5 -14.5t22 -13t18 -9.5t17.5 -8t15 -5t16.5 -4t15.5 -1.5t18.5 -1q51 0 99.5 34.5t103.5 110.5l156 -92q-89 -156 -181 -233.5t-206 -77.5q-88 0 -168 51q-12 7 -33.5 21t-29 18.5 t-23.5 14.5t-22 13t-18 9.5t-17.5 8t-15 5t-16.5 4t-15.5 1.5t-18.5 1q-51 0 -99.5 -34.5t-103.5 -110.5z" />
<glyph unicode="&#xa1;" horiz-adv-x="630" d="M147 59l86 576h164l86 -576v-331h-336v331zM147 784v310h336v-310h-336z" />
<glyph unicode="&#xa2;" d="M88 545q0 235 138.5 393.5t369.5 177.5v168h123v-170q273 -27 418 -274l-242 -144q-63 127 -176 150v-600q110 18 190 145l228 -151q-143 -235 -418 -260v-173h-123v170q-155 12 -271 89.5t-176.5 201.5t-60.5 277zM408 547q0 -115 48.5 -193t139.5 -102v592 q-90 -23 -139 -102.5t-49 -194.5z" />
<glyph unicode="&#xa3;" d="M25 555v193h143q-45 118 -45 208q0 201 145 317t369 116q364 0 541 -322l-271 -131q-40 76 -96 118t-145 42q-86 0 -141.5 -46.5t-55.5 -127.5q0 -72 41 -174h346v-193h-299q2 -6 2 -20q0 -30 -2 -49.5t-9.5 -50t-26 -62.5t-48.5 -68q68 25 129 25q53 0 140 -22.5 t114 -22.5q88 0 127 104l248 -145q-119 -269 -346 -269q-69 0 -202 48.5t-208 48.5q-70 0 -158.5 -25t-162.5 -72l-111 248q209 92 209 236q0 47 -14 96h-213z" />
<glyph unicode="&#xa4;" d="M78 270l162 160q-47 86 -47 191q0 106 47 192l-162 162l182 184l164 -164q85 45 188 45q106 0 189 -47l166 166l182 -184l-164 -166q47 -89 47 -188q0 -95 -45 -187l162 -164l-182 -184l-164 162q-89 -47 -191 -47q-98 0 -190 47l-162 -162zM406 621q0 -86 60 -146.5 t146 -60.5t146.5 60.5t60.5 146.5t-60.5 146t-146.5 60t-146 -60t-60 -146z" />
<glyph unicode="&#xa5;" d="M14 1364h373l231 -516l228 516h368l-337 -635h245v-135h-317l-29 -51v-92h346v-136h-346v-315h-323v315h-351v136h351v88l-31 55h-320v135h250z" />
<glyph unicode="&#xa6;" horiz-adv-x="477" d="M141 -221v655h195v-655h-195zM141 807v655h195v-655h-195z" />
<glyph unicode="&#xa7;" horiz-adv-x="1222" d="M78 -80l168 211q135 -135 309 -135q125 0 199 74l-209 127q-75 46 -130.5 85t-121.5 100t-108.5 122.5t-71.5 145.5t-29 175q0 119 41 222.5t115.5 179t185 119t242.5 43.5q280 0 477 -185l-168 -211q-135 135 -309 135q-125 0 -201 -73l215 -129q74 -45 131.5 -86 t121 -101.5t105.5 -122.5t69.5 -144.5t27.5 -172.5q0 -119 -41 -222.5t-115 -179t-184 -118.5t-242 -43q-278 0 -477 184zM354 825q0 -64 16.5 -119t42 -97t75 -89t95 -81.5t122.5 -88.5l157 -110q6 40 6 71q0 60 -17 112.5t-42.5 93.5t-74.5 87.5t-95 81.5t-121 88 l-158 111q-6 -30 -6 -60z" />
<glyph unicode="&#xa8;" horiz-adv-x="661" d="M-16 1204v234h229v-234h-229zM449 1204v234h227v-234h-227z" />
<glyph unicode="&#xa9;" horiz-adv-x="1589" d="M76 682q0 117 36.5 227t103 198t155 154.5t198 103t226.5 36.5q146 0 278.5 -57t229 -153t153.5 -229.5t57 -279.5q0 -145 -57 -278.5t-153.5 -230t-229.5 -153.5t-278 -57q-116 0 -226 36.5t-198.5 103t-155 155t-103 198.5t-36.5 226zM223 682q0 -116 45.5 -222 t122 -182t182.5 -121.5t222 -45.5q155 0 286.5 76.5t208 208t76.5 286.5q0 156 -76.5 287.5t-208 207.5t-286.5 76q-115 0 -221 -45t-183 -121t-122.5 -182t-45.5 -223zM365 682q0 181 126.5 307.5t305.5 126.5q244 0 387 -235l-189 -123q-72 125 -194 125q-83 0 -141 -59 t-58 -142q0 -82 58 -142.5t141 -60.5q120 0 194 131l193 -125q-69 -117 -170.5 -176t-220.5 -59q-179 0 -305.5 126t-126.5 306z" />
<glyph unicode="&#xaa;" horiz-adv-x="911" d="M72 864q0 71 32.5 117.5t80.5 65t105 29.5t105 13.5t80.5 14.5t32.5 35q0 57 -111 57q-119 0 -231 -70l-72 170q135 82 332 82q317 0 317 -264v-272q0 -19 6.5 -27t24.5 -8q22 0 39 10l29 -149q-20 -11 -59.5 -18t-67.5 -7q-119 0 -156 78q-79 -84 -229 -84 q-114 0 -186 60t-72 167zM295 872q0 -35 23.5 -51t60.5 -16q59 0 95 29t36 86v57q-36 -21 -113 -31q-51 -7 -76.5 -22t-25.5 -52z" />
<glyph unicode="&#xab;" horiz-adv-x="1046" d="M39 487v115l332 418l151 -113l-229 -362l229 -363l-151 -112zM489 487v115l332 418l152 -113l-230 -362l230 -363l-152 -112z" />
<glyph unicode="&#xac;" horiz-adv-x="1280" d="M98 492v260h1061v-660h-258v400h-803z" />
<glyph unicode="&#xad;" horiz-adv-x="843" d="M104 436v279h635v-279h-635z" />
<glyph unicode="&#xae;" horiz-adv-x="962" d="M78 985q0 167 118 285.5t285 118.5q166 0 285 -118.5t119 -285.5t-119 -284t-285 -117q-167 0 -285 117t-118 284zM137 985q0 -143 100.5 -243.5t243.5 -100.5q141 0 242.5 101t101.5 243t-101.5 243t-242.5 101q-143 0 -243.5 -100.5t-100.5 -243.5zM309 780v414h201 q75 0 116.5 -37t41.5 -98q0 -47 -19.5 -80t-54.5 -45l82 -154h-123l-66 138h-63v-138h-115zM424 1001h78q21 0 36 14.5t15 39.5q0 24 -15 37.5t-36 13.5h-78v-105z" />
<glyph unicode="&#xaf;" horiz-adv-x="727" d="M8 1214v170h680v-170h-680z" />
<glyph unicode="&#xb0;" horiz-adv-x="776" d="M59 1057q0 137 97 234.5t233 97.5q135 0 232.5 -98t97.5 -234q0 -135 -97.5 -232.5t-232.5 -97.5q-136 0 -233 97.5t-97 232.5zM244 1057q0 -59 42.5 -101.5t102.5 -42.5t101.5 42.5t41.5 101.5q0 60 -41.5 102.5t-101.5 42.5t-102.5 -42.5t-42.5 -102.5z" />
<glyph unicode="&#xb1;" d="M82 0v260h1063v-260h-1063zM82 707v260h401v348h260v-348h402v-260h-402v-347h-260v347h-401z" />
<glyph unicode="&#xb2;" horiz-adv-x="835" d="M37 1352q136 219 366 219q154 0 249.5 -78t95.5 -213q0 -100 -68.5 -191.5t-228.5 -203.5h327v-211h-708v170q248 174 337 262t89 162q0 43 -32.5 69.5t-80.5 26.5q-47 0 -88 -29t-68 -84z" />
<glyph unicode="&#xb3;" horiz-adv-x="839" d="M35 903l198 62q50 -103 191 -103q53 0 85 23.5t32 60.5q0 35 -31 54.5t-82 19.5h-115v194h111q36 0 66 19.5t30 54.5q0 39 -31.5 58.5t-76.5 19.5q-125 0 -181 -96l-182 82q65 113 157 166t218 53q140 0 236 -67.5t96 -192.5q0 -118 -94 -176q62 -26 92 -79.5t30 -117.5 q0 -120 -98.5 -200.5t-263.5 -80.5q-286 0 -387 246z" />
<glyph unicode="&#xb4;" horiz-adv-x="661" d="M160 1227q124 164 172 278l254 -43q-34 -82 -125.5 -165t-184.5 -130z" />
<glyph unicode="&#x3bc;" d="M100 -356v1450h312v-664q0 -190 161 -190q83 0 139 56t56 161v637h311v-824q0 -67 51 -67q30 0 48 12l22 -203q-57 -28 -151 -28q-81 0 -142.5 36t-85.5 105q-45 -73 -118.5 -111.5t-147.5 -38.5q-87 0 -143 56v-387h-312z" />
<glyph unicode="&#xb5;" d="M100 -356v1450h312v-664q0 -190 161 -190q83 0 139 56t56 161v637h311v-824q0 -67 51 -67q30 0 48 12l22 -203q-57 -28 -151 -28q-81 0 -142.5 36t-85.5 105q-45 -73 -118.5 -111.5t-147.5 -38.5q-87 0 -143 56v-387h-312z" />
<glyph unicode="&#xb6;" horiz-adv-x="1179" d="M70 915q0 133 61 236.5t163 158t226 54.5h512v-1550h-110v1360h-119v-1360h-205v651h-78q-195 0 -322.5 124t-127.5 326z" />
<glyph unicode="&#xb7;" horiz-adv-x="569" d="M90 623q0 79 57.5 136.5t137.5 57.5q79 0 135.5 -57t56.5 -137q0 -79 -56.5 -137t-135.5 -58t-137 58.5t-58 136.5z" />
<glyph unicode="&#xb8;" horiz-adv-x="661" d="M63 -121q73 -69 164 -69q49 0 79 20.5t30 60.5q0 69 -94 125l77 43q91 -32 147 -94.5t56 -134.5q0 -85 -75 -141t-191 -56q-63 0 -115 16.5t-78 39.5v190z" />
<glyph unicode="&#xb9;" horiz-adv-x="714" d="M47 1446q212 34 297 108h176v-680h174v-200h-616v200h207v431q-107 -28 -207 -39z" />
<glyph unicode="&#xba;" horiz-adv-x="907" d="M59 1008q0 167 107.5 268.5t286.5 101.5q180 0 287.5 -101.5t107.5 -268.5t-107.5 -269t-287.5 -102q-179 0 -286.5 102t-107.5 269zM303 1008q0 -79 40 -128t110 -49q73 0 112 49t39 128q0 81 -39 129.5t-112 48.5q-71 0 -110.5 -49t-39.5 -129z" />
<glyph unicode="&#xbb;" horiz-adv-x="1046" d="M74 182l229 363l-229 362l151 113l332 -418v-115l-332 -417zM524 182l230 363l-230 362l152 113l332 -418v-115l-332 -417z" />
<glyph unicode="&#xbc;" horiz-adv-x="2111" d="M96 1255q211 34 297 109h176v-680h174v-201h-616v201h207v430q-107 -28 -207 -39zM477 0l920 1364h231l-919 -1364h-232zM1264 172v168q69 126 112.5 275t44.5 266h232q-3 -232 -152 -514h191v303h223v-303h117v-195h-117v-172h-227v172h-424z" />
<glyph unicode="&#xbd;" horiz-adv-x="2111" d="M90 1255q211 34 297 109h176v-680h174v-201h-616v201h207v430q-107 -28 -207 -39zM471 0l920 1364h231l-920 -1364h-231zM1286 678q64 101 156.5 160t210.5 59q153 0 247.5 -78.5t94.5 -214.5q0 -99 -68.5 -191.5t-228.5 -203.5h330v-209h-709v170q247 175 336.5 262.5 t89.5 159.5q0 45 -32 71.5t-81 26.5q-47 0 -88.5 -29t-68.5 -83z" />
<glyph unicode="&#xbe;" horiz-adv-x="2111" d="M66 713l198 61q50 -102 191 -102q53 0 84.5 23.5t31.5 60.5q0 35 -30.5 54t-81.5 19h-117v195h113q36 0 66 19.5t30 54.5q0 38 -32.5 58t-76.5 20q-126 0 -180 -97l-182 82q65 113 157 166t216 53q141 0 237 -67.5t96 -192.5q0 -118 -94 -176q61 -26 91 -79.5t30 -116.5 q0 -120 -98.5 -200.5t-261.5 -80.5q-286 0 -387 246zM500 0l919 1364h232l-920 -1364h-231zM1286 172v168q69 126 113 275t45 266h231q-3 -234 -151 -514h190v303h223v-303h117v-195h-117v-172h-227v172h-424z" />
<glyph unicode="&#xbf;" horiz-adv-x="1159" d="M106 141q0 92 33.5 169.5t91.5 132t128 91.5t151 58v45h315v-309q-49 14 -118 14q-121 0 -193 -47.5t-72 -142.5q0 -82 57 -127t148 -45q176 0 295 122l174 -206q-215 -193 -504 -193q-227 0 -366.5 117t-139.5 321zM492 793v301h342v-301h-342z" />
<glyph unicode="&#xc0;" horiz-adv-x="1404" d="M2 0l506 1364h391l504 -1364h-365l-94 291h-491l-95 -291h-356zM410 1720l256 43q40 -100 170 -278l-117 -60q-91 47 -182 130t-127 165zM526 553h342l-170 539z" />
<glyph unicode="&#xc1;" horiz-adv-x="1404" d="M2 0l506 1364h391l504 -1364h-365l-94 291h-491l-95 -291h-356zM526 553h342l-170 539zM567 1485q124 164 172 278l254 -43q-35 -82 -125.5 -165t-183.5 -130z" />
<glyph unicode="&#xc2;" horiz-adv-x="1404" d="M2 0l506 1364h391l504 -1364h-365l-94 291h-491l-95 -291h-356zM326 1544q161 104 266 199h221q105 -95 266 -199l-71 -114q-81 17 -164 55t-142 82q-59 -45 -142 -82.5t-163 -54.5zM526 553h342l-170 539z" />
<glyph unicode="&#xc3;" horiz-adv-x="1404" d="M2 0l506 1364h391l504 -1364h-365l-94 291h-491l-95 -291h-356zM309 1526q36 89 104 146t154 57q59 0 146.5 -40t126.5 -40t79 22.5t72 63.5l111 -76q-38 -89 -105.5 -146t-152.5 -57q-60 0 -148 40t-125 40q-40 0 -80.5 -22.5t-70.5 -63.5zM526 553h342l-170 539z" />
<glyph unicode="&#xc4;" horiz-adv-x="1404" d="M2 0l506 1364h391l504 -1364h-365l-94 291h-491l-95 -291h-356zM350 1462v234h230v-234h-230zM526 553h342l-170 539zM815 1462v234h227v-234h-227z" />
<glyph unicode="&#xc5;" horiz-adv-x="1392" d="M-4 0l473 1272q-72 69 -72 160q0 106 88 182t211 76q124 0 211.5 -76t87.5 -182q0 -94 -69 -160l471 -1272h-365l-94 291h-492l-94 -291h-356zM520 553h342l-170 539zM586 1430q0 -46 32.5 -77.5t79.5 -31.5q46 0 77.5 31.5t31.5 77.5q0 47 -31.5 79.5t-77.5 32.5 q-47 0 -79.5 -32.5t-32.5 -79.5z" />
<glyph unicode="&#xc6;" horiz-adv-x="1986" d="M-14 0l690 1364h1206v-293h-633v-231h541v-260h-541v-289h654v-291h-979v291h-441l-141 -291h-356zM606 553h318v553h-64z" />
<glyph unicode="&#xc7;" horiz-adv-x="1411" d="M72 684q0 315 190.5 510t493.5 195q190 0 344 -82.5t256 -257.5l-258 -150q-119 207 -334 207q-163 0 -259.5 -118t-96.5 -302q0 -187 96.5 -307.5t259.5 -120.5q112 0 190.5 56t139.5 169l270 -141q-170 -317 -508 -360q72 -69 72 -152q0 -85 -75 -141t-191 -56 q-63 0 -115 16.5t-78 39.5v190q73 -69 164 -69q49 0 78.5 20.5t29.5 60.5q0 43 -43 86q-281 20 -453.5 213t-172.5 494z" />
<glyph unicode="&#xc8;" horiz-adv-x="1292" d="M147 0v1364h1041v-293h-715v-231h623v-260h-623v-289h735v-291h-1061zM391 1724l256 43q40 -100 170 -278l-117 -59q-92 47 -182.5 129.5t-126.5 164.5z" />
<glyph unicode="&#xc9;" horiz-adv-x="1292" d="M147 0v1364h1041v-293h-715v-231h623v-260h-623v-289h735v-291h-1061zM563 1489q124 164 172 278l254 -43q-34 -82 -125 -164.5t-184 -129.5z" />
<glyph unicode="&#xca;" horiz-adv-x="1292" d="M147 0v1364h1041v-293h-715v-231h623v-260h-623v-289h735v-291h-1061zM301 1548q161 104 266 199h221q103 -92 267 -199l-72 -114q-80 17 -163 54.5t-142 82.5q-59 -45 -142 -82.5t-163 -54.5z" />
<glyph unicode="&#xcb;" horiz-adv-x="1292" d="M147 0v1364h1041v-293h-715v-231h623v-260h-623v-289h735v-291h-1061zM336 1466v234h229v-234h-229zM801 1466v234h227v-234h-227z" />
<glyph unicode="&#xcc;" horiz-adv-x="620" d="M45 1720l256 43q40 -100 170 -278l-117 -60q-91 47 -182 130t-127 165zM147 0v1364h326v-1364h-326z" />
<glyph unicode="&#xcd;" horiz-adv-x="620" d="M147 0v1364h326v-1364h-326zM166 1485q124 164 172 278l254 -43q-35 -82 -125.5 -165t-183.5 -130z" />
<glyph unicode="&#xce;" horiz-adv-x="620" d="M-68 1544q164 107 267 199h221q105 -95 266 -199l-72 -114q-80 17 -163 54.5t-142 82.5q-59 -45 -142 -82.5t-163 -54.5zM147 0v1364h326v-1364h-326z" />
<glyph unicode="&#xcf;" horiz-adv-x="620" d="M-37 1462v234h230v-234h-230zM147 0v1364h326v-1364h-326zM428 1462v234h227v-234h-227z" />
<glyph unicode="&#xd0;" horiz-adv-x="1542" d="M4 559v258h201v547h569q167 0 300 -51.5t219 -143.5t131.5 -216t45.5 -271t-45.5 -271t-131.5 -216t-219 -143.5t-300 -51.5h-569v559h-201zM532 291h242q172 0 265.5 102.5t93.5 288.5q0 184 -93.5 286.5t-265.5 102.5h-242v-254h310v-258h-310v-268z" />
<glyph unicode="&#xd1;" horiz-adv-x="1511" d="M147 0v1364h408l498 -913v913h311v-1364h-391l-512 934v-934h-314zM381 1526q36 89 104 146t154 57q59 0 146 -40t126 -40t79.5 22.5t72.5 63.5l111 -76q-38 -89 -106 -146t-153 -57q-60 0 -147.5 40t-124.5 40q-40 0 -80.5 -22.5t-70.5 -63.5z" />
<glyph unicode="&#xd2;" horiz-adv-x="1533" d="M70 682q0 147 48 276t136 225t220 151t292 55q128 0 239.5 -35.5t195.5 -100t144 -152.5t90.5 -194.5t30.5 -224.5q0 -148 -48.5 -277t-137 -224.5t-221.5 -150.5t-293 -55q-212 0 -372 95t-242 254t-82 358zM408 682q0 -177 94.5 -292.5t263.5 -115.5t264.5 115.5 t95.5 292.5q0 176 -95.5 292t-264.5 116q-113 0 -195.5 -55.5t-122.5 -147t-40 -205.5zM496 1720l256 43q40 -100 170 -278l-117 -60q-91 47 -182 130t-127 165z" />
<glyph unicode="&#xd3;" horiz-adv-x="1533" d="M70 682q0 147 48 276t136 225t220 151t292 55q128 0 239.5 -35.5t195.5 -100t144 -152.5t90.5 -194.5t30.5 -224.5q0 -148 -48.5 -277t-137 -224.5t-221.5 -150.5t-293 -55q-212 0 -372 95t-242 254t-82 358zM408 682q0 -177 94.5 -292.5t263.5 -115.5t264.5 115.5 t95.5 292.5q0 176 -95.5 292t-264.5 116q-113 0 -195.5 -55.5t-122.5 -147t-40 -205.5zM600 1485q124 164 172 278l254 -43q-35 -82 -125.5 -165t-183.5 -130z" />
<glyph unicode="&#xd4;" horiz-adv-x="1533" d="M70 682q0 147 48 276t136 225t220 151t292 55q128 0 239.5 -35.5t195.5 -100t144 -152.5t90.5 -194.5t30.5 -224.5q0 -148 -48.5 -277t-137 -224.5t-221.5 -150.5t-293 -55q-212 0 -372 95t-242 254t-82 358zM389 1544q161 104 266 199h222q105 -95 266 -199l-72 -114 q-80 17 -163 54.5t-142 82.5q-59 -45 -142 -82.5t-163 -54.5zM408 682q0 -177 94.5 -292.5t263.5 -115.5t264.5 115.5t95.5 292.5q0 176 -95.5 292t-264.5 116q-113 0 -195.5 -55.5t-122.5 -147t-40 -205.5z" />
<glyph unicode="&#xd5;" horiz-adv-x="1533" d="M70 682q0 147 48 276t136 225t220 151t292 55q128 0 239.5 -35.5t195.5 -100t144 -152.5t90.5 -194.5t30.5 -224.5q0 -148 -48.5 -277t-137 -224.5t-221.5 -150.5t-293 -55q-212 0 -372 95t-242 254t-82 358zM377 1526q36 89 104 146t154 57q59 0 146 -40t126 -40 t79.5 22.5t72.5 63.5l110 -76q-38 -89 -105.5 -146t-152.5 -57q-60 0 -147.5 40t-124.5 40q-40 0 -81 -22.5t-71 -63.5zM408 682q0 -177 94.5 -292.5t263.5 -115.5t264.5 115.5t95.5 292.5q0 176 -95.5 292t-264.5 116q-113 0 -195.5 -55.5t-122.5 -147t-40 -205.5z" />
<glyph unicode="&#xd6;" horiz-adv-x="1533" d="M70 682q0 147 48 276t136 225t220 151t292 55q128 0 239.5 -35.5t195.5 -100t144 -152.5t90.5 -194.5t30.5 -224.5q0 -148 -48.5 -277t-137 -224.5t-221.5 -150.5t-293 -55q-212 0 -372 95t-242 254t-82 358zM408 682q0 -177 94.5 -292.5t263.5 -115.5t264.5 115.5 t95.5 292.5q0 176 -95.5 292t-264.5 116q-113 0 -195.5 -55.5t-122.5 -147t-40 -205.5zM418 1462v234h229v-234h-229zM883 1462v234h227v-234h-227z" />
<glyph unicode="&#xd7;" d="M78 270l352 353l-352 352l182 184l354 -352l353 352l182 -184l-350 -352l350 -353l-182 -184l-353 352l-354 -352z" />
<glyph unicode="&#xd8;" horiz-adv-x="1533" d="M70 682q0 147 48 276t136 225t220 151t292 55q188 0 342 -80l63 90l132 -92l-62 -88q108 -97 166.5 -236t58.5 -301q0 -148 -48.5 -277t-137 -224.5t-221.5 -150.5t-293 -55q-192 0 -342 78l-62 -88l-131 92l60 84q-107 97 -164 236.5t-57 304.5zM408 682q0 -159 75 -266 l445 637q-70 37 -162 37q-113 0 -195.5 -55.5t-122.5 -147t-40 -205.5zM604 309q63 -35 162 -35q169 0 264.5 115.5t95.5 292.5q0 155 -75 262z" />
<glyph unicode="&#xd9;" horiz-adv-x="1460" d="M133 528v836h328v-836q0 -125 68.5 -190.5t201.5 -65.5q130 0 200 66t70 190v836h326v-836q0 -262 -162 -407.5t-434 -145.5q-275 0 -436.5 145t-161.5 408zM453 1720l256 43q40 -100 170 -278l-117 -60q-91 47 -182 130t-127 165z" />
<glyph unicode="&#xda;" horiz-adv-x="1460" d="M133 528v836h328v-836q0 -125 68.5 -190.5t201.5 -65.5q130 0 200 66t70 190v836h326v-836q0 -262 -162 -407.5t-434 -145.5q-275 0 -436.5 145t-161.5 408zM612 1485q124 164 172 278l254 -43q-35 -82 -125.5 -165t-183.5 -130z" />
<glyph unicode="&#xdb;" horiz-adv-x="1460" d="M133 528v836h328v-836q0 -125 68.5 -190.5t201.5 -65.5q130 0 200 66t70 190v836h326v-836q0 -262 -162 -407.5t-434 -145.5q-275 0 -436.5 145t-161.5 408zM354 1544q164 107 267 199h221q105 -95 266 -199l-72 -114q-80 17 -163 54.5t-142 82.5q-59 -45 -142 -82.5 t-163 -54.5z" />
<glyph unicode="&#xdc;" horiz-adv-x="1460" d="M133 528v836h328v-836q0 -125 68.5 -190.5t201.5 -65.5q130 0 200 66t70 190v836h326v-836q0 -262 -162 -407.5t-434 -145.5q-275 0 -436.5 145t-161.5 408zM389 1462v234h229v-234h-229zM854 1462v234h227v-234h-227z" />
<glyph unicode="&#xdd;" horiz-adv-x="1370" d="M-4 1364h381l309 -543l311 543h379l-528 -840v-524h-326v520zM559 1485q124 164 172 278l254 -43q-35 -82 -125.5 -165t-183.5 -130z" />
<glyph unicode="&#xde;" horiz-adv-x="1337" d="M147 0v1366h328v-168h305q240 0 380 -127t140 -340q0 -212 -138.5 -337.5t-381.5 -125.5h-305v-268h-328zM475 561h301q83 0 138 44t55 128q0 86 -51.5 130t-141.5 44h-301v-346z" />
<glyph unicode="&#xdf;" horiz-adv-x="1359" d="M129 0v1038q0 211 141.5 330t403.5 119q155 0 273.5 -44.5t187.5 -135t69 -217.5q0 -100 -48.5 -179t-137.5 -125q132 -38 205 -131t73 -237q0 -204 -137.5 -323.5t-359.5 -119.5q-162 0 -271 41l56 271q72 -37 161 -37q97 0 158.5 52t61.5 147q0 186 -250 186h-125v258 h96q91 0 146 41.5t55 122.5q0 86 -61 128t-160 42q-105 0 -164.5 -50.5t-59.5 -142.5v-1034h-313z" />
<glyph unicode="&#xe0;" horiz-adv-x="1200" d="M57 315q0 300 402 338q81 8 117 12.5t78 15.5t56.5 29.5t14.5 47.5q0 30 -16 51.5t-43.5 32.5t-56 15.5t-60.5 4.5q-87 0 -179.5 -26.5t-166.5 -75.5l-105 233q218 125 473 125q469 0 469 -381v-467q0 -37 14 -52t44 -15q36 0 53 14l33 -197q-57 -36 -170 -36 q-82 0 -145 35t-87 104q-55 -77 -148 -112.5t-198 -35.5q-171 0 -275 89.5t-104 250.5zM285 1462l256 43q40 -100 170 -278l-117 -60q-91 47 -182 130t-127 165zM369 326q0 -61 41.5 -92t111.5 -31q91 0 147 50.5t56 149.5v125q-11 -13 -26 -23t-25.5 -15.5t-35 -11.5 t-33 -8t-41.5 -7t-40 -6q-35 -5 -58 -12t-47.5 -21t-37 -38.5t-12.5 -59.5z" />
<glyph unicode="&#xe1;" horiz-adv-x="1200" d="M57 315q0 300 402 338q81 8 117 12.5t78 15.5t56.5 29.5t14.5 47.5q0 30 -16 51.5t-43.5 32.5t-56 15.5t-60.5 4.5q-87 0 -179.5 -26.5t-166.5 -75.5l-105 233q218 125 473 125q469 0 469 -381v-467q0 -37 14 -52t44 -15q36 0 53 14l33 -197q-57 -36 -170 -36 q-82 0 -145 35t-87 104q-55 -77 -148 -112.5t-198 -35.5q-171 0 -275 89.5t-104 250.5zM369 326q0 -61 41.5 -92t111.5 -31q91 0 147 50.5t56 149.5v125q-11 -13 -26 -23t-25.5 -15.5t-35 -11.5t-33 -8t-41.5 -7t-40 -6q-35 -5 -58 -12t-47.5 -21t-37 -38.5t-12.5 -59.5z M436 1227q124 164 172 278l254 -43q-35 -82 -125.5 -165t-183.5 -130z" />
<glyph unicode="&#xe2;" horiz-adv-x="1200" d="M57 315q0 300 402 338q81 8 117 12.5t78 15.5t56.5 29.5t14.5 47.5q0 30 -16 51.5t-43.5 32.5t-56 15.5t-60.5 4.5q-87 0 -179.5 -26.5t-166.5 -75.5l-105 233q218 125 473 125q469 0 469 -381v-467q0 -37 14 -52t44 -15q36 0 53 14l33 -197q-57 -36 -170 -36 q-82 0 -145 35t-87 104q-55 -77 -148 -112.5t-198 -35.5q-171 0 -275 89.5t-104 250.5zM184 1286q164 107 267 199h221q105 -95 266 -199l-72 -115q-80 17 -162.5 55t-142.5 83q-60 -45 -142.5 -83t-162.5 -55zM369 326q0 -61 41.5 -92t111.5 -31q91 0 147 50.5t56 149.5 v125q-11 -13 -26 -23t-25.5 -15.5t-35 -11.5t-33 -8t-41.5 -7t-40 -6q-35 -5 -58 -12t-47.5 -21t-37 -38.5t-12.5 -59.5z" />
<glyph unicode="&#xe3;" horiz-adv-x="1200" d="M57 315q0 300 402 338q81 8 117 12.5t78 15.5t56.5 29.5t14.5 47.5q0 30 -16 51.5t-43.5 32.5t-56 15.5t-60.5 4.5q-87 0 -179.5 -26.5t-166.5 -75.5l-105 233q218 125 473 125q469 0 469 -381v-467q0 -37 14 -52t44 -15q36 0 53 14l33 -197q-57 -36 -170 -36 q-82 0 -145 35t-87 104q-55 -77 -148 -112.5t-198 -35.5q-171 0 -275 89.5t-104 250.5zM178 1268q36 89 103.5 145.5t154.5 56.5q59 0 146.5 -39.5t126.5 -39.5t79 22.5t72 63.5l111 -76q-38 -89 -105.5 -146t-152.5 -57q-60 0 -148 40t-125 40q-40 0 -80.5 -22.5 t-70.5 -63.5zM369 326q0 -61 41.5 -92t111.5 -31q91 0 147 50.5t56 149.5v125q-11 -13 -26 -23t-25.5 -15.5t-35 -11.5t-33 -8t-41.5 -7t-40 -6q-35 -5 -58 -12t-47.5 -21t-37 -38.5t-12.5 -59.5z" />
<glyph unicode="&#xe4;" horiz-adv-x="1200" d="M57 315q0 300 402 338q81 8 117 12.5t78 15.5t56.5 29.5t14.5 47.5q0 30 -16 51.5t-43.5 32.5t-56 15.5t-60.5 4.5q-87 0 -179.5 -26.5t-166.5 -75.5l-105 233q218 125 473 125q469 0 469 -381v-467q0 -37 14 -52t44 -15q36 0 53 14l33 -197q-57 -36 -170 -36 q-82 0 -145 35t-87 104q-55 -77 -148 -112.5t-198 -35.5q-171 0 -275 89.5t-104 250.5zM223 1204v234h230v-234h-230zM369 326q0 -61 41.5 -92t111.5 -31q91 0 147 50.5t56 149.5v125q-11 -13 -26 -23t-25.5 -15.5t-35 -11.5t-33 -8t-41.5 -7t-40 -6q-35 -5 -58 -12 t-47.5 -21t-37 -38.5t-12.5 -59.5zM688 1204v234h227v-234h-227z" />
<glyph unicode="&#xe5;" horiz-adv-x="1200" d="M57 315q0 300 402 338q81 8 117 12.5t78 15.5t56.5 29.5t14.5 47.5q0 30 -16 51.5t-43.5 32.5t-56 15.5t-60.5 4.5q-87 0 -179.5 -26.5t-166.5 -75.5l-105 233q218 125 473 125q469 0 469 -381v-467q0 -37 14 -52t44 -15q36 0 53 14l33 -197q-57 -36 -170 -36 q-82 0 -145 35t-87 104q-55 -77 -148 -112.5t-198 -35.5q-171 0 -275 89.5t-104 250.5zM311 1380q0 93 71.5 157.5t182.5 64.5t182.5 -64.5t71.5 -157.5q0 -92 -71.5 -155.5t-182.5 -63.5t-182.5 63.5t-71.5 155.5zM369 326q0 -61 41.5 -92t111.5 -31q91 0 147 50.5 t56 149.5v125q-11 -13 -26 -23t-25.5 -15.5t-35 -11.5t-33 -8t-41.5 -7t-40 -6q-35 -5 -58 -12t-47.5 -21t-37 -38.5t-12.5 -59.5zM463 1378q0 -41 30.5 -71.5t71.5 -30.5q43 0 74 30.5t31 71.5q0 43 -31 74t-74 31q-41 0 -71.5 -31t-30.5 -74z" />
<glyph unicode="&#xe6;" horiz-adv-x="1894" d="M57 317q0 76 26.5 134.5t65 93t96.5 58.5t106 34t108 16q14 2 40 4q139 15 177 32q49 21 49 69q0 30 -16 51.5t-43.5 32.5t-56 15.5t-60.5 4.5q-87 0 -179.5 -26.5t-166.5 -75.5l-105 233q213 125 457 125q252 0 363 -141q135 141 366 141q253 0 400 -154.5t147 -404.5 q0 -19 -6 -94h-787q7 -110 81 -166.5t196 -56.5q185 0 301 129l201 -189q-207 -207 -521 -207q-135 0 -245 43.5t-179 128.5q-53 -80 -157.5 -126t-241.5 -46q-194 0 -305 88.5t-111 253.5zM369 326q0 -61 41.5 -92t111.5 -31q91 0 147 50.5t56 149.5v125q-11 -13 -26 -23 t-25.5 -15.5t-35 -11.5t-33 -8t-41.5 -7t-40 -6q-35 -5 -58 -12t-47.5 -21t-37 -38.5t-12.5 -59.5zM1040 678h482q-9 100 -74.5 153.5t-165.5 53.5q-103 0 -168.5 -56.5t-73.5 -150.5z" />
<glyph unicode="&#xe7;" horiz-adv-x="1155" d="M66 545q0 164 68 293.5t196.5 204.5t296.5 75q170 0 291.5 -75t195.5 -203l-242 -144q-78 156 -229 156q-115 0 -181.5 -85t-66.5 -220q0 -137 69 -221t187 -84q79 0 134.5 38t101.5 111l227 -151q-138 -227 -395 -258q72 -69 72 -152q0 -85 -75 -141t-192 -56 q-63 0 -114.5 16.5t-77.5 39.5v190q73 -69 164 -69q49 0 78.5 20.5t29.5 60.5q0 47 -45 89q-226 23 -359.5 179t-133.5 386z" />
<glyph unicode="&#xe8;" horiz-adv-x="1255" d="M66 541q0 254 154 415.5t419 161.5q257 0 406 -154t149 -405q0 -19 -6 -94h-787q7 -110 81 -166.5t196 -56.5q185 0 301 129l201 -189q-207 -207 -521 -207q-143 0 -257 43t-187 119.5t-111 179t-38 224.5zM354 1462l256 43q40 -100 170 -278l-116 -60q-92 47 -183 130 t-127 165zM403 678h482q-9 100 -74.5 153.5t-165.5 53.5q-103 0 -168.5 -56.5t-73.5 -150.5z" />
<glyph unicode="&#xe9;" horiz-adv-x="1255" d="M66 541q0 254 154 415.5t419 161.5q257 0 406 -154t149 -405q0 -19 -6 -94h-787q7 -110 81 -166.5t196 -56.5q185 0 301 129l201 -189q-207 -207 -521 -207q-143 0 -257 43t-187 119.5t-111 179t-38 224.5zM403 678h482q-9 100 -74.5 153.5t-165.5 53.5 q-103 0 -168.5 -56.5t-73.5 -150.5zM500 1227q124 164 172 278l254 -43q-34 -82 -125.5 -165t-184.5 -130z" />
<glyph unicode="&#xea;" horiz-adv-x="1255" d="M66 541q0 254 154 415.5t419 161.5q257 0 406 -154t149 -405q0 -19 -6 -94h-787q7 -110 81 -166.5t196 -56.5q185 0 301 129l201 -189q-207 -207 -521 -207q-143 0 -257 43t-187 119.5t-111 179t-38 224.5zM260 1286q161 104 266 199h222q105 -95 266 -199l-72 -115 q-80 17 -162.5 55t-142.5 83q-60 -45 -142.5 -83t-162.5 -55zM403 678h482q-9 100 -74.5 153.5t-165.5 53.5q-103 0 -168.5 -56.5t-73.5 -150.5z" />
<glyph unicode="&#xeb;" horiz-adv-x="1255" d="M66 541q0 254 154 415.5t419 161.5q257 0 406 -154t149 -405q0 -19 -6 -94h-787q7 -110 81 -166.5t196 -56.5q185 0 301 129l201 -189q-207 -207 -521 -207q-143 0 -257 43t-187 119.5t-111 179t-38 224.5zM293 1204v234h229v-234h-229zM403 678h482q-9 100 -74.5 153.5 t-165.5 53.5q-103 0 -168.5 -56.5t-73.5 -150.5zM758 1204v234h227v-234h-227z" />
<glyph unicode="&#xec;" horiz-adv-x="571" d="M18 1462l256 43q40 -100 170 -278l-116 -60q-92 47 -183 130t-127 165zM129 0v1094h313v-1094h-313z" />
<glyph unicode="&#xed;" horiz-adv-x="571" d="M129 0v1094h313v-1094h-313zM145 1227q124 164 172 278l254 -43q-35 -82 -125.5 -165t-183.5 -130z" />
<glyph unicode="&#xee;" horiz-adv-x="571" d="M-92 1286q161 104 266 199h221q103 -92 267 -199l-72 -115q-80 17 -162.5 55t-142.5 83q-60 -45 -142.5 -83t-162.5 -55zM129 0v1094h313v-1094h-313z" />
<glyph unicode="&#xef;" horiz-adv-x="571" d="M-33 1204v234h228v-234h-228zM129 0v1094h313v-1094h-313zM377 1204v234h229v-234h-229z" />
<glyph unicode="&#xf0;" horiz-adv-x="1302" d="M68 502q0 146 60 265.5t173.5 190t259.5 70.5q151 0 260 -80q-68 116 -180 211l-246 -98l-47 117l164 67q-55 35 -158 86l262 156q105 -54 203 -127l252 100l47 -119l-188 -75q284 -287 284 -668q0 -310 -170 -475q-154 -148 -405 -148q-253 0 -412 144t-159 383z M399 500q0 -118 64.5 -191t183.5 -73q120 0 188 74.5t68 189.5q0 118 -69 194t-189 76q-117 0 -181.5 -75.5t-64.5 -194.5z" />
<glyph unicode="&#xf1;" horiz-adv-x="1257" d="M129 0v1094h313v-125q64 72 149 110.5t179 38.5q179 0 274 -109.5t95 -283.5v-725h-314v653q0 187 -170 187q-92 0 -152.5 -57.5t-60.5 -159.5v-623h-313zM268 1268q36 89 103.5 145.5t154.5 56.5q59 0 146.5 -39.5t126.5 -39.5t79 22.5t72 63.5l111 -76 q-38 -89 -105.5 -146t-152.5 -57q-60 0 -148 40t-125 40q-40 0 -80.5 -22.5t-70.5 -63.5z" />
<glyph unicode="&#xf2;" horiz-adv-x="1292" d="M66 545q0 258 157.5 415.5t421.5 157.5t423 -157.5t159 -415.5q0 -256 -159 -413t-423 -157t-421.5 156.5t-157.5 413.5zM379 1462l256 43q40 -100 170 -278l-117 -60q-91 47 -182 130t-127 165zM397 547q0 -139 65.5 -224t182.5 -85q118 0 183 85t65 224t-65 224 t-183 85q-117 0 -182.5 -85t-65.5 -224z" />
<glyph unicode="&#xf3;" horiz-adv-x="1292" d="M66 545q0 258 157.5 415.5t421.5 157.5t423 -157.5t159 -415.5q0 -256 -159 -413t-423 -157t-421.5 156.5t-157.5 413.5zM397 547q0 -139 65.5 -224t182.5 -85q118 0 183 85t65 224t-65 224t-183 85q-117 0 -182.5 -85t-65.5 -224zM463 1227q124 164 172 278l254 -43 q-35 -82 -125.5 -165t-183.5 -130z" />
<glyph unicode="&#xf4;" horiz-adv-x="1292" d="M66 545q0 258 157.5 415.5t421.5 157.5t423 -157.5t159 -415.5q0 -256 -159 -413t-423 -157t-421.5 156.5t-157.5 413.5zM270 1286q164 107 267 199h221q105 -95 266 -199l-72 -115q-80 17 -162.5 55t-142.5 83q-60 -45 -142.5 -83t-162.5 -55zM397 547q0 -139 65.5 -224 t182.5 -85q118 0 183 85t65 224t-65 224t-183 85q-117 0 -182.5 -85t-65.5 -224z" />
<glyph unicode="&#xf5;" horiz-adv-x="1292" d="M66 545q0 258 157.5 415.5t421.5 157.5t423 -157.5t159 -415.5q0 -256 -159 -413t-423 -157t-421.5 156.5t-157.5 413.5zM248 1268q36 89 103.5 145.5t154.5 56.5q59 0 146 -39.5t126 -39.5t79.5 22.5t72.5 63.5l110 -76q-38 -89 -105.5 -146t-152.5 -57q-60 0 -147.5 40 t-124.5 40q-40 0 -81 -22.5t-71 -63.5zM397 547q0 -139 65.5 -224t182.5 -85q118 0 183 85t65 224t-65 224t-183 85q-117 0 -182.5 -85t-65.5 -224z" />
<glyph unicode="&#xf6;" horiz-adv-x="1292" d="M66 545q0 258 157.5 415.5t421.5 157.5t423 -157.5t159 -415.5q0 -256 -159 -413t-423 -157t-421.5 156.5t-157.5 413.5zM299 1204v234h229v-234h-229zM397 547q0 -139 65.5 -224t182.5 -85q118 0 183 85t65 224t-65 224t-183 85q-117 0 -182.5 -85t-65.5 -224zM764 1204 v234h227v-234h-227z" />
<glyph unicode="&#xf7;" d="M82 492v260h1063v-260h-1063zM436 209q0 73 52 125.5t126 52.5q72 0 124.5 -52.5t52.5 -125.5q0 -72 -52.5 -124t-124.5 -52q-73 0 -125.5 52t-52.5 124zM436 1034q0 74 52 126t126 52q72 0 124.5 -52.5t52.5 -125.5q0 -72 -52.5 -124t-124.5 -52q-73 0 -125.5 52 t-52.5 124z" />
<glyph unicode="&#xf8;" horiz-adv-x="1292" d="M66 545q0 258 157.5 415.5t421.5 157.5q145 0 275 -57l45 63l114 -80l-41 -59q189 -156 189 -440q0 -256 -159 -413t-423 -157q-149 0 -274 56l-43 -62l-117 80l39 55q-88 76 -136 189.5t-48 251.5zM395 547q0 -107 37 -180l328 469q-48 28 -115 28q-119 0 -184.5 -87.5 t-65.5 -229.5zM528 258q50 -27 117 -27q120 0 186 86.5t66 229.5q0 106 -41 180z" />
<glyph unicode="&#xf9;" horiz-adv-x="1257" d="M119 369v725h313v-654q0 -186 170 -186q92 0 152.5 57.5t60.5 159.5v623h313v-1094h-313v123q-138 -148 -328 -148q-179 0 -273.5 110t-94.5 284zM330 1462l256 43q40 -100 170 -278l-117 -60q-91 47 -182 130t-127 165z" />
<glyph unicode="&#xfa;" horiz-adv-x="1257" d="M119 369v725h313v-654q0 -186 170 -186q92 0 152.5 57.5t60.5 159.5v623h313v-1094h-313v123q-138 -148 -328 -148q-179 0 -273.5 110t-94.5 284zM512 1227q124 164 172 278l254 -43q-35 -82 -125.5 -165t-183.5 -130z" />
<glyph unicode="&#xfb;" horiz-adv-x="1257" d="M119 369v725h313v-654q0 -186 170 -186q92 0 152.5 57.5t60.5 159.5v623h313v-1094h-313v123q-138 -148 -328 -148q-179 0 -273.5 110t-94.5 284zM252 1286q161 104 266 199h221q103 -92 267 -199l-72 -115q-80 17 -162.5 55t-142.5 83q-60 -45 -142.5 -83t-162.5 -55z " />
<glyph unicode="&#xfc;" horiz-adv-x="1257" d="M119 369v725h313v-654q0 -186 170 -186q92 0 152.5 57.5t60.5 159.5v623h313v-1094h-313v123q-138 -148 -328 -148q-179 0 -273.5 110t-94.5 284zM276 1204v234h230v-234h-230zM741 1204v234h228v-234h-228z" />
<glyph unicode="&#xfd;" horiz-adv-x="1173" d="M0 1094h358l250 -684l226 684h335l-428 -1127q-69 -180 -162 -262t-251 -82q-161 0 -291 88l119 209q62 -43 125 -43q49 0 81.5 26.5t57.5 78.5l26 51zM489 1227q126 167 173 278l253 -43q-35 -82 -125.5 -165t-183.5 -130z" />
<glyph unicode="&#xfe;" horiz-adv-x="1341" d="M129 -356v1818h313v-493q134 149 336 149q150 0 264.5 -75.5t174 -205t59.5 -290.5q0 -249 -136 -410.5t-362 -161.5q-200 0 -336 148v-479h-313zM442 547q0 -129 67.5 -215t188.5 -86q120 0 183 85.5t63 215.5q0 131 -63 216t-183 85q-123 0 -189.5 -85t-66.5 -216z" />
<glyph unicode="&#xff;" horiz-adv-x="1173" d="M0 1094h358l250 -684l226 684h335l-428 -1127q-69 -180 -162 -262t-251 -82q-161 0 -291 88l119 209q62 -43 125 -43q49 0 81.5 26.5t57.5 78.5l26 51zM254 1204v234h229v-234h-229zM719 1204v234h227v-234h-227z" />
<glyph unicode="&#x100;" horiz-adv-x="1404" d="M2 0l506 1364h391l504 -1364h-365l-94 291h-491l-95 -291h-356zM360 1475v170h680v-170h-680zM526 553h342l-170 539z" />
<glyph unicode="&#x101;" horiz-adv-x="1200" d="M57 315q0 300 402 338q81 8 117 12.5t78 15.5t56.5 29.5t14.5 47.5q0 30 -16 51.5t-43.5 32.5t-56 15.5t-60.5 4.5q-87 0 -179.5 -26.5t-166.5 -75.5l-105 233q218 125 473 125q469 0 469 -381v-467q0 -37 14 -52t44 -15q36 0 53 14l33 -197q-57 -36 -170 -36 q-82 0 -145 35t-87 104q-55 -77 -148 -112.5t-198 -35.5q-171 0 -275 89.5t-104 250.5zM240 1214v170h680v-170h-680zM369 326q0 -61 41.5 -92t111.5 -31q91 0 147 50.5t56 149.5v125q-11 -13 -26 -23t-25.5 -15.5t-35 -11.5t-33 -8t-41.5 -7t-40 -6q-35 -5 -58 -12 t-47.5 -21t-37 -38.5t-12.5 -59.5z" />
<glyph unicode="&#x102;" horiz-adv-x="1404" d="M2 0l506 1364h391l504 -1364h-365l-94 291h-491l-95 -291h-356zM336 1698l147 43q53 -116 217 -119q166 0 218 119l147 -43q-23 -112 -117.5 -183t-247.5 -71t-247 71t-117 183zM526 553h342l-170 539z" />
<glyph unicode="&#x103;" horiz-adv-x="1200" d="M57 315q0 300 402 338q81 8 117 12.5t78 15.5t56.5 29.5t14.5 47.5q0 30 -16 51.5t-43.5 32.5t-56 15.5t-60.5 4.5q-87 0 -179.5 -26.5t-166.5 -75.5l-105 233q218 125 473 125q469 0 469 -381v-467q0 -37 14 -52t44 -15q36 0 53 14l33 -197q-57 -36 -170 -36 q-82 0 -145 35t-87 104q-55 -77 -148 -112.5t-198 -35.5q-171 0 -275 89.5t-104 250.5zM211 1440l147 43q53 -116 217 -119q166 0 218 119l147 -43q-23 -112 -117.5 -183t-247.5 -71t-247 71t-117 183zM369 326q0 -61 41.5 -92t111.5 -31q91 0 147 50.5t56 149.5v125 q-11 -13 -26 -23t-25.5 -15.5t-35 -11.5t-33 -8t-41.5 -7t-40 -6q-35 -5 -58 -12t-47.5 -21t-37 -38.5t-12.5 -59.5z" />
<glyph unicode="&#x104;" horiz-adv-x="1402" d="M2 0l506 1364h391l504 -1364q-283 -8 -283 -111q0 -38 31.5 -60t85.5 -22q45 0 87.5 16.5t70.5 43.5v-184q-26 -23 -78 -39.5t-115 -16.5q-119 0 -193.5 55.5t-74.5 141.5q0 104 104 178l-94 289h-491l-95 -291h-356zM528 553h340l-170 539z" />
<glyph unicode="&#x105;" horiz-adv-x="1200" d="M57 313q0 302 402 340q81 8 117 12.5t78 15.5t56.5 29.5t14.5 47.5q0 30 -16 51.5t-43.5 32.5t-56 15.5t-60.5 4.5q-86 0 -178.5 -27t-167.5 -77l-105 235q219 125 475 125q219 0 343 -91.5t124 -289.5v-467q0 -67 56 -67q37 0 57 14l31 -197q-53 -34 -162 -34 q-32 -22 -48 -48.5t-16 -48.5q0 -73 107 -73q80 0 127 43v-185q-57 -39 -154 -39q-121 0 -194.5 54.5t-73.5 144.5q0 100 133 170q-42 14 -74 45t-47 74q-107 -148 -350 -148q-165 0 -270 90t-105 248zM369 326q0 -61 41.5 -92t111.5 -31q91 0 147 50.5t56 149.5v125 q-11 -13 -26 -23t-25.5 -15.5t-35 -11.5t-33 -8t-41.5 -7t-40 -6q-35 -5 -58 -12t-47.5 -21t-37 -38.5t-12.5 -59.5z" />
<glyph unicode="&#x106;" horiz-adv-x="1404" d="M70 684q0 315 190.5 510t493.5 195q190 0 344 -82.5t256 -257.5l-258 -150q-119 207 -334 207q-163 0 -259.5 -118t-96.5 -302q0 -187 96.5 -307.5t259.5 -120.5q112 0 190.5 56t139.5 169l270 -141q-95 -176 -247.5 -271.5t-358.5 -95.5q-305 0 -495.5 196t-190.5 513z M592 1485q124 164 172 278l254 -43q-35 -82 -125.5 -165t-183.5 -130z" />
<glyph unicode="&#x107;" horiz-adv-x="1153" d="M63 545q0 164 68.5 293.5t197 204.5t296.5 75q170 0 291.5 -75t195.5 -203l-242 -144q-78 156 -229 156q-115 0 -181.5 -85t-66.5 -220q0 -137 69 -221t187 -84q79 0 134.5 38t101.5 111l227 -151q-73 -121 -193.5 -193t-289.5 -72q-170 0 -300 74.5t-198 203.5t-68 292z M500 1227q121 165 162 278l256 -43q-36 -83 -123.5 -165t-178.5 -130z" />
<glyph unicode="&#x108;" horiz-adv-x="1404" d="M70 684q0 315 190.5 510t493.5 195q190 0 344 -82.5t256 -257.5l-258 -150q-119 207 -334 207q-163 0 -259.5 -118t-96.5 -302q0 -187 96.5 -307.5t259.5 -120.5q112 0 190.5 56t139.5 169l270 -141q-95 -176 -247.5 -271.5t-358.5 -95.5q-305 0 -495.5 196t-190.5 513z M379 1544q161 104 266 199h221q103 -92 267 -199l-72 -114q-80 17 -163 54.5t-142 82.5q-59 -45 -142 -82.5t-163 -54.5z" />
<glyph unicode="&#x109;" horiz-adv-x="1153" d="M63 545q0 164 68.5 293.5t197 204.5t296.5 75q170 0 291.5 -75t195.5 -203l-242 -144q-78 156 -229 156q-115 0 -181.5 -85t-66.5 -220q0 -137 69 -221t187 -84q79 0 134.5 38t101.5 111l227 -151q-73 -121 -193.5 -193t-289.5 -72q-170 0 -300 74.5t-198 203.5t-68 292z M246 1286q161 104 266 199h221q105 -95 266 -199l-71 -115q-80 17 -162.5 55t-142.5 83q-60 -45 -143 -83t-163 -55z" />
<glyph unicode="&#x10a;" horiz-adv-x="1404" d="M70 684q0 315 190.5 510t493.5 195q190 0 344 -82.5t256 -257.5l-258 -150q-119 207 -334 207q-163 0 -259.5 -118t-96.5 -302q0 -187 96.5 -307.5t259.5 -120.5q112 0 190.5 56t139.5 169l270 -141q-95 -176 -247.5 -271.5t-358.5 -95.5q-305 0 -495.5 196t-190.5 513z M637 1470v226h246v-226h-246z" />
<glyph unicode="&#x10b;" horiz-adv-x="1153" d="M63 545q0 164 68.5 293.5t197 204.5t296.5 75q170 0 291.5 -75t195.5 -203l-242 -144q-78 156 -229 156q-115 0 -181.5 -85t-66.5 -220q0 -137 69 -221t187 -84q79 0 134.5 38t101.5 111l227 -151q-73 -121 -193.5 -193t-289.5 -72q-170 0 -300 74.5t-198 203.5t-68 292z M496 1212v226h245v-226h-245z" />
<glyph unicode="&#x10c;" horiz-adv-x="1404" d="M70 684q0 315 190.5 510t493.5 195q190 0 344 -82.5t256 -257.5l-258 -150q-119 207 -334 207q-163 0 -259.5 -118t-96.5 -302q0 -187 96.5 -307.5t259.5 -120.5q112 0 190.5 56t139.5 169l270 -141q-95 -176 -247.5 -271.5t-358.5 -95.5q-305 0 -495.5 196t-190.5 513z M375 1645l71 114q81 -17 164 -55t142 -82q59 45 142 82.5t163 54.5l71 -114q-161 -104 -266 -199h-221q-105 95 -266 199z" />
<glyph unicode="&#x10d;" horiz-adv-x="1153" d="M63 545q0 164 68.5 293.5t197 204.5t296.5 75q170 0 291.5 -75t195.5 -203l-242 -144q-78 156 -229 156q-115 0 -181.5 -85t-66.5 -220q0 -137 69 -221t187 -84q79 0 134.5 38t101.5 111l227 -151q-73 -121 -193.5 -193t-289.5 -72q-170 0 -300 74.5t-198 203.5t-68 292z M244 1386l71 115q81 -17 164 -55t142 -82q59 45 142 82.5t163 54.5l71 -115q-165 -107 -266 -198h-221q-101 91 -266 198z" />
<glyph unicode="&#x10e;" horiz-adv-x="1484" d="M147 0v1364h566q167 0 301 -52t220.5 -144t132.5 -216t46 -270t-46 -270t-132.5 -216t-220.5 -144t-301 -52h-566zM365 1645l71 114q80 -17 163 -54.5t142 -82.5q59 44 142 82t164 55l71 -114q-161 -104 -266 -199h-221q-105 95 -266 199zM475 291h238q176 0 269 104 t93 287t-93 286t-269 103h-238v-780z" />
<glyph unicode="&#x10f;" horiz-adv-x="1570" d="M66 547q0 249 135.5 410t361.5 161q203 0 334 -149v493h315v-1462h-315v125q-132 -150 -334 -150q-150 0 -264 75.5t-173.5 205t-59.5 291.5zM395 545q0 -130 64 -214.5t184 -84.5q122 0 188 84.5t66 214.5q0 131 -66.5 217t-187.5 86q-120 0 -184 -86t-64 -217z M1339 954q121 105 121 220q-1 42 -33 109t-32 132v47h280v-176q0 -139 -56 -244t-185 -204z" />
<glyph unicode="&#x110;" horiz-adv-x="1554" d="M16 561v256h201v547h567q167 0 300.5 -52t220 -144t132.5 -216t46 -270q0 -145 -46 -269t-132.5 -216t-220 -144.5t-300.5 -52.5h-567v561h-201zM545 291h239q174 0 267.5 104t93.5 287t-93 286t-268 103h-239v-254h309v-256h-309v-270z" />
<glyph unicode="&#x111;" horiz-adv-x="1341" d="M66 547q0 249 135.5 410t361.5 161q203 0 334 -149v231h-244v166h244v96h315v-96h121v-166h-121v-1200h-315v125q-132 -150 -334 -150q-150 0 -264 75.5t-173.5 205t-59.5 291.5zM395 545q0 -130 63.5 -214.5t182.5 -84.5q124 0 190 84.5t66 214.5q0 131 -67 217t-189 86 q-119 0 -182.5 -86t-63.5 -217z" />
<glyph unicode="&#x112;" horiz-adv-x="1292" d="M147 0v1364h1041v-293h-715v-231h623v-260h-623v-289h735v-291h-1061zM324 1475v170h680v-170h-680z" />
<glyph unicode="&#x113;" horiz-adv-x="1255" d="M66 541q0 254 154 415.5t419 161.5q257 0 406 -154t149 -405q0 -19 -6 -94h-787q7 -110 81 -166.5t196 -56.5q185 0 301 129l201 -189q-207 -207 -521 -207q-143 0 -257 43t-187 119.5t-111 179t-38 224.5zM299 1214v170h680v-170h-680zM403 678h482q-9 100 -74.5 153.5 t-165.5 53.5q-103 0 -168.5 -56.5t-73.5 -150.5z" />
<glyph unicode="&#x114;" horiz-adv-x="1292" d="M147 0v1364h1041v-293h-715v-231h623v-260h-623v-289h735v-291h-1061zM301 1698l148 43q53 -116 217 -119q165 0 217 119l147 -43q-23 -112 -117 -183t-247 -71t-247.5 71t-117.5 183z" />
<glyph unicode="&#x115;" horiz-adv-x="1255" d="M66 541q0 254 154 415.5t419 161.5q257 0 406 -154t149 -405q0 -19 -6 -94h-787q7 -110 81 -166.5t196 -56.5q185 0 301 129l201 -189q-207 -207 -521 -207q-143 0 -257 43t-187 119.5t-111 179t-38 224.5zM270 1440l148 43q53 -116 217 -119q165 0 217 119l147 -43 q-23 -112 -117 -183t-247 -71t-247.5 71t-117.5 183zM403 678h482q-9 100 -74.5 153.5t-165.5 53.5q-103 0 -168.5 -56.5t-73.5 -150.5z" />
<glyph unicode="&#x116;" horiz-adv-x="1292" d="M147 0v1364h1041v-293h-715v-231h623v-260h-623v-289h735v-291h-1061zM543 1470v226h245v-226h-245z" />
<glyph unicode="&#x117;" horiz-adv-x="1255" d="M66 541q0 254 154 415.5t419 161.5q257 0 406 -154t149 -405q0 -19 -6 -94h-787q7 -110 81 -166.5t196 -56.5q185 0 301 129l201 -189q-207 -207 -521 -207q-143 0 -257 43t-187 119.5t-111 179t-38 224.5zM403 678h482q-9 100 -74.5 153.5t-165.5 53.5 q-103 0 -168.5 -56.5t-73.5 -150.5zM510 1212v226h246v-226h-246z" />
<glyph unicode="&#x118;" horiz-adv-x="1292" d="M147 0v1364h1041v-293h-715v-231h623v-260h-623v-289h735v-291h-227q-49 -52 -49 -104q0 -39 31.5 -62.5t83.5 -23.5q49 0 92 19.5t69 45.5v-180q-27 -24 -79 -42t-117 -18q-115 0 -189.5 56.5t-74.5 142.5q0 93 79 166h-680z" />
<glyph unicode="&#x119;" horiz-adv-x="1259" d="M66 541q0 254 154 415.5t419 161.5q257 0 406 -154t149 -405q0 -19 -6 -94h-787q7 -110 81 -166.5t196 -56.5q185 0 301 129l201 -189q-82 -82 -219 -149q-51 -26 -79 -54.5t-28 -70.5q0 -41 31.5 -66.5t79.5 -25.5q92 0 165 73v-194q-73 -60 -198 -60q-116 0 -189 54.5 t-73 140.5q0 89 73 150q-67 -5 -84 -5q-143 0 -257 43t-187 119.5t-111 179t-38 224.5zM403 678h482q-9 100 -74.5 153.5t-165.5 53.5q-103 0 -168.5 -56.5t-73.5 -150.5z" />
<glyph unicode="&#x11a;" horiz-adv-x="1292" d="M147 0v1364h1041v-293h-715v-231h623v-260h-623v-289h735v-291h-1061zM291 1645l71 114q81 -17 164 -55t142 -82q59 45 142 82.5t163 54.5l71 -114q-161 -104 -266 -199h-221q-105 95 -266 199z" />
<glyph unicode="&#x11b;" horiz-adv-x="1255" d="M66 541q0 254 154 415.5t419 161.5q257 0 406 -154t149 -405q0 -19 -6 -94h-787q7 -110 81 -166.5t196 -56.5q185 0 301 129l201 -189q-207 -207 -521 -207q-143 0 -257 43t-187 119.5t-111 179t-38 224.5zM260 1386l72 115q80 -17 163 -54.5t142 -82.5q59 45 142 82.5 t163 54.5l72 -115q-165 -107 -266 -198h-222q-101 91 -266 198zM403 678h482q-9 100 -74.5 153.5t-165.5 53.5q-103 0 -168.5 -56.5t-73.5 -150.5z" />
<glyph unicode="&#x11c;" horiz-adv-x="1484" d="M70 686q0 319 190.5 511t505.5 192q197 0 349 -87t243 -245l-268 -152q-107 201 -326 201q-170 0 -263 -116t-93 -302q0 -206 96 -320t264 -114q126 0 216.5 62t105.5 171h-318v261h647q11 -60 11 -123q0 -135 -43.5 -252.5t-126 -206.5t-210 -140t-286.5 -51 q-312 0 -503 195.5t-191 515.5zM377 1544q161 104 266 199h221q105 -95 266 -199l-71 -114q-80 17 -163 54.5t-142 82.5q-59 -45 -142 -82.5t-163 -54.5z" />
<glyph unicode="&#x11d;" horiz-adv-x="1345" d="M70 590q0 225 138 376.5t357 151.5q210 0 338 -149v125h316v-877q0 -140 -27.5 -240t-97.5 -178q-161 -176 -510 -176q-277 0 -478 119l115 244q151 -101 357 -101q71 0 128 14t102 43t70 79t25 118v76q-126 -147 -340 -147q-145 0 -258.5 69.5t-174 188t-60.5 264.5z M266 1286q161 104 266 199h222q105 -95 266 -199l-72 -115q-80 17 -162.5 55t-142.5 83q-60 -45 -142.5 -83t-162.5 -55zM401 594q0 -119 64.5 -194.5t183.5 -75.5q118 0 187 76.5t69 193.5t-67.5 191.5t-188.5 74.5q-119 0 -183.5 -74t-64.5 -192z" />
<glyph unicode="&#x11e;" horiz-adv-x="1484" d="M70 686q0 319 190.5 511t505.5 192q197 0 349 -87t243 -245l-268 -152q-107 201 -326 201q-170 0 -263 -116t-93 -302q0 -206 96 -320t264 -114q126 0 216.5 62t105.5 171h-318v261h647q11 -60 11 -123q0 -135 -43.5 -252.5t-126 -206.5t-210 -140t-286.5 -51 q-312 0 -503 195.5t-191 515.5zM387 1698l148 43q53 -116 217 -119q165 0 217 119l147 -43q-23 -112 -117 -183t-247 -71t-247.5 71t-117.5 183z" />
<glyph unicode="&#x11f;" horiz-adv-x="1345" d="M70 590q0 225 138 376.5t357 151.5q210 0 338 -149v125h316v-877q0 -140 -27.5 -240t-97.5 -178q-161 -176 -510 -176q-277 0 -478 119l115 244q151 -101 357 -101q71 0 128 14t102 43t70 79t25 118v76q-126 -147 -340 -147q-145 0 -258.5 69.5t-174 188t-60.5 264.5z M264 1440l148 43q53 -116 217 -119q165 0 217 119l147 -43q-23 -112 -117 -183t-247 -71t-247.5 71t-117.5 183zM401 594q0 -119 64.5 -194.5t183.5 -75.5q118 0 187 76.5t69 193.5t-67.5 191.5t-188.5 74.5q-119 0 -183.5 -74t-64.5 -192z" />
<glyph unicode="&#x120;" horiz-adv-x="1484" d="M70 686q0 319 190.5 511t505.5 192q197 0 349 -87t243 -245l-268 -152q-107 201 -326 201q-170 0 -263 -116t-93 -302q0 -206 96 -320t264 -114q126 0 216.5 62t105.5 171h-318v261h647q11 -60 11 -123q0 -135 -43.5 -252.5t-126 -206.5t-210 -140t-286.5 -51 q-312 0 -503 195.5t-191 515.5zM631 1470v226h246v-226h-246z" />
<glyph unicode="&#x121;" horiz-adv-x="1345" d="M70 590q0 225 138 376.5t357 151.5q210 0 338 -149v125h316v-877q0 -140 -27.5 -240t-97.5 -178q-161 -176 -510 -176q-277 0 -478 119l115 244q151 -101 357 -101q71 0 128 14t102 43t70 79t25 118v76q-126 -147 -340 -147q-145 0 -258.5 69.5t-174 188t-60.5 264.5z M401 594q0 -119 64.5 -194.5t183.5 -75.5q118 0 187 76.5t69 193.5t-67.5 191.5t-188.5 74.5q-119 0 -183.5 -74t-64.5 -192zM506 1212v226h246v-226h-246z" />
<glyph unicode="&#x122;" horiz-adv-x="1484" d="M70 686q0 319 190.5 511t505.5 192q197 0 349 -87t243 -245l-268 -152q-107 201 -326 201q-170 0 -263 -116t-93 -302q0 -206 96 -320t264 -114q126 0 216.5 62t105.5 171h-318v261h647q11 -60 11 -123q0 -135 -43.5 -252.5t-126 -206.5t-210 -140t-286.5 -51 q-312 0 -503 195.5t-191 515.5zM481 -352q120 168 158 272l258 -29q-33 -84 -121 -168t-178 -133z" />
<glyph unicode="&#x123;" horiz-adv-x="1345" d="M70 590q0 225 138 376.5t357 151.5q210 0 338 -149v125h316v-877q0 -140 -27.5 -240t-97.5 -178q-161 -176 -510 -176q-277 0 -478 119l115 244q151 -101 357 -101q71 0 128 14t102 43t70 79t25 118v76q-126 -147 -340 -147q-145 0 -258.5 69.5t-174 188t-60.5 264.5z M401 594q0 -119 64.5 -194.5t183.5 -75.5q118 0 187 76.5t69 193.5t-67.5 191.5t-188.5 74.5q-119 0 -183.5 -74t-64.5 -192zM465 1202q33 84 121 169t178 134l117 -59q-117 -160 -158 -270z" />
<glyph unicode="&#x124;" horiz-adv-x="1511" d="M147 0v1364h328v-504h559v504h330v-1364h-330v569h-559v-569h-328zM375 1544q161 104 266 199h221q105 -95 266 -199l-71 -114q-80 17 -163 54.5t-142 82.5q-59 -44 -142 -82t-164 -55z" />
<glyph unicode="&#x125;" horiz-adv-x="1257" d="M-86 1587q161 104 266 199h221q103 -92 267 -199l-72 -114q-80 17 -163 54.5t-142 82.5q-59 -45 -142 -82.5t-163 -54.5zM129 0v1462h313v-493q64 72 149 110.5t179 38.5q179 0 274 -109.5t95 -283.5v-725h-314v653q0 187 -170 187q-92 0 -152.5 -57.5t-60.5 -159.5v-623 h-313z" />
<glyph unicode="&#x126;" horiz-adv-x="1511" d="M33 1077v166h114v121h328v-121h559v121h330v-121h113v-166h-113v-1077h-330v569h-559v-569h-328v1077h-114zM475 860h559v217h-559v-217z" />
<glyph unicode="&#x127;" horiz-adv-x="1257" d="M6 1198v166h123v98h313v-98h246v-166h-246v-229q64 72 149 110.5t179 38.5q179 0 274 -109.5t95 -283.5v-725h-314v653q0 187 -170 187q-92 0 -152.5 -57.5t-60.5 -159.5v-623h-313v1198h-123z" />
<glyph unicode="&#x128;" horiz-adv-x="620" d="M-86 1526q36 89 104 146t154 57q59 0 146 -40t126 -40t79.5 22.5t72.5 63.5l111 -76q-38 -89 -105.5 -146t-152.5 -57q-60 0 -148 40t-125 40q-40 0 -80.5 -22.5t-70.5 -63.5zM147 0v1364h326v-1364h-326z" />
<glyph unicode="&#x129;" horiz-adv-x="571" d="M-109 1268q36 88 104 145t155 57q59 0 146 -39.5t126 -39.5t79 22.5t72 63.5l111 -76q-38 -89 -105.5 -146t-152.5 -57q-60 0 -147.5 40t-124.5 40q-40 0 -81 -22.5t-71 -63.5zM129 0v1094h313v-1094h-313z" />
<glyph unicode="&#x12a;" horiz-adv-x="620" d="M-31 1477v170h680v-170h-680zM147 0v1364h326v-1364h-326z" />
<glyph unicode="&#x12b;" horiz-adv-x="571" d="M-53 1214v170h680v-170h-680zM129 0v1094h313v-1094h-313z" />
<glyph unicode="&#x12c;" horiz-adv-x="620" d="M-53 1698l147 43q53 -116 217 -119q165 0 217 119l148 -43q-23 -112 -117.5 -183t-247.5 -71t-247 71t-117 183zM147 0v1364h326v-1364h-326z" />
<glyph unicode="&#x12d;" horiz-adv-x="571" d="M-80 1440l148 43q53 -116 217 -119q165 0 217 119l147 -43q-23 -112 -117 -183t-247 -71t-247.5 71t-117.5 183zM129 0v1094h313v-1094h-313z" />
<glyph unicode="&#x12e;" horiz-adv-x="620" d="M66 -168q0 53 25 98.5t56 69.5v1364h326v-1364q-223 -9 -223 -111q0 -34 29.5 -51.5t78.5 -17.5q37 0 73.5 11t55.5 28v-185q-57 -39 -153 -39q-121 0 -194.5 55t-73.5 142z" />
<glyph unicode="&#x12f;" horiz-adv-x="571" d="M39 -168q0 38 17 74t32.5 53t40.5 41v1094h313v-1094q-223 -9 -223 -111q0 -34 30 -51.5t79 -17.5q37 0 73.5 11t55.5 28v-185q-57 -39 -154 -39q-117 0 -190.5 55.5t-73.5 141.5zM129 1241v221h313v-221h-313z" />
<glyph unicode="&#x130;" horiz-adv-x="620" d="M147 0v1364h326v-1364h-326zM188 1470v226h246v-226h-246z" />
<glyph unicode="&#x131;" horiz-adv-x="571" d="M129 0v1094h313v-1094h-313z" />
<glyph unicode="&#x134;" horiz-adv-x="1126" d="M4 268l268 146q67 -152 209 -152q89 0 136 53t47 152v897h327v-889q0 -243 -134.5 -371.5t-364.5 -128.5q-170 0 -295 73t-193 220zM442 1544q164 107 267 199h221q105 -95 266 -199l-72 -114q-80 17 -163 54.5t-142 82.5q-59 -45 -142 -82.5t-163 -54.5z" />
<glyph unicode="&#x135;" horiz-adv-x="573" d="M-184 -315l86 229q56 -29 106 -29q63 0 92 35t29 105v1069h315v-1063q0 -200 -105 -302t-290 -102q-137 0 -233 58zM-92 1286q161 104 266 199h221q103 -92 267 -199l-72 -115q-80 17 -162.5 55t-142.5 83q-60 -45 -142.5 -83t-162.5 -55z" />
<glyph unicode="&#x136;" horiz-adv-x="1421" d="M147 0v1364h326v-594l512 594h393l-479 -549l531 -815h-383l-373 578l-201 -232v-346h-326zM504 -352q120 168 158 272l258 -29q-33 -84 -121 -168t-178 -133z" />
<glyph unicode="&#x137;" horiz-adv-x="1269" d="M129 0v1462h313v-825l414 457h369l-402 -428l449 -666h-373l-289 457l-168 -178v-279h-313zM432 -352q120 168 158 272l258 -29q-33 -84 -121 -168t-178 -133z" />
<glyph unicode="&#x138;" horiz-adv-x="1271" d="M129 0v1094h313v-457l414 457h369l-402 -428l449 -666h-373l-289 457l-168 -178v-279h-313z" />
<glyph unicode="&#x139;" horiz-adv-x="1189" d="M147 0v1364h326v-1073h690v-291h-1016zM147 1487q124 164 172 278l254 -43q-35 -82 -125.5 -165t-183.5 -130z" />
<glyph unicode="&#x13a;" horiz-adv-x="575" d="M129 1571q124 164 172 278l254 -43q-35 -82 -125.5 -165t-183.5 -130zM131 0v1462h313v-1462h-313z" />
<glyph unicode="&#x13b;" horiz-adv-x="1189" d="M147 0v1364h326v-1073h690v-291h-1016zM434 -352q120 168 158 272l258 -29q-33 -84 -121 -168t-178 -133z" />
<glyph unicode="&#x13c;" horiz-adv-x="575" d="M12 -352q120 168 158 272l258 -29q-33 -84 -121 -168t-178 -133zM131 0v1462h313v-1462h-313z" />
<glyph unicode="&#x13d;" horiz-adv-x="1189" d="M147 0v1364h326v-1073h690v-291h-1016zM631 856q121 105 121 219q-1 42 -33.5 109.5t-32.5 132.5v47h281v-176q0 -138 -56.5 -244t-185.5 -205z" />
<glyph unicode="&#x13e;" horiz-adv-x="819" d="M131 0v1462h313v-1462h-313zM586 954q121 105 121 220q-1 42 -33.5 109t-32.5 132v47h281v-176q0 -138 -56.5 -243t-185.5 -205z" />
<glyph unicode="&#x13f;" horiz-adv-x="1189" d="M147 0v1364h326v-1073h690v-291h-1016zM721 750q0 80 57.5 137t136.5 57t136 -57t57 -137q0 -79 -57 -137t-136 -58t-136.5 58.5t-57.5 136.5z" />
<glyph unicode="&#x140;" horiz-adv-x="1118" d="M131 0v1462h313v-1462h-313zM651 623q0 79 57.5 136.5t137.5 57.5q79 0 135.5 -57t56.5 -137q0 -79 -56.5 -137t-135.5 -58t-137 58.5t-58 136.5z" />
<glyph unicode="&#x141;" horiz-adv-x="1232" d="M-12 426v262l205 80v596h323v-471l408 162v-262l-408 -162v-340h690v-291h-1013v508z" />
<glyph unicode="&#x142;" horiz-adv-x="718" d="M6 586v250l201 73v553h313v-442l203 78v-250l-203 -76v-772h-313v662z" />
<glyph unicode="&#x143;" horiz-adv-x="1511" d="M147 0v1364h408l498 -913v913h311v-1364h-391l-512 934v-934h-314zM643 1485q124 164 172 278l254 -43q-35 -82 -125.5 -165t-183.5 -130z" />
<glyph unicode="&#x144;" horiz-adv-x="1257" d="M129 0v1094h313v-125q64 72 149 110.5t179 38.5q179 0 274 -109.5t95 -283.5v-725h-314v653q0 187 -170 187q-92 0 -152.5 -57.5t-60.5 -159.5v-623h-313zM512 1227q121 165 162 278l256 -43q-36 -83 -123.5 -165t-177.5 -130z" />
<glyph unicode="&#x145;" horiz-adv-x="1511" d="M147 0v1364h408l498 -913v913h311v-1364h-391l-512 934v-934h-314zM512 -352q120 168 158 272l258 -29q-33 -84 -121 -168t-178 -133z" />
<glyph unicode="&#x146;" horiz-adv-x="1257" d="M129 0v1094h313v-125q64 72 149 110.5t179 38.5q179 0 274 -109.5t95 -283.5v-725h-314v653q0 187 -170 187q-92 0 -152.5 -57.5t-60.5 -159.5v-623h-313zM391 -352q120 168 158 272l258 -29q-33 -84 -121 -168t-178 -133z" />
<glyph unicode="&#x147;" horiz-adv-x="1511" d="M147 0v1364h408l498 -913v913h311v-1364h-391l-512 934v-934h-314zM381 1645l72 114q80 -17 163 -54.5t142 -82.5q59 45 142 82.5t163 54.5l72 -114q-164 -107 -267 -199h-221q-105 95 -266 199z" />
<glyph unicode="&#x148;" horiz-adv-x="1257" d="M129 0v1094h313v-125q64 72 149 110.5t179 38.5q179 0 274 -109.5t95 -283.5v-725h-314v653q0 187 -170 187q-92 0 -152.5 -57.5t-60.5 -159.5v-623h-313zM256 1386l72 115q80 -17 163 -54.5t142 -82.5q59 45 142 82.5t163 54.5l72 -115q-168 -109 -267 -198h-221 q-101 91 -266 198z" />
<glyph unicode="&#x14a;" horiz-adv-x="1511" d="M147 0v1364h396l510 -838v838h311v-1241q0 -244 -131 -372t-359 -128q-127 0 -229 55l96 250q52 -28 117 -28q124 0 164 100l-561 924v-924h-314z" />
<glyph unicode="&#x14b;" horiz-adv-x="1257" d="M129 0v1094h313v-125q64 72 149 110.5t179 38.5q179 0 274 -109.5t95 -283.5v-694q0 -186 -96 -295t-283 -109q-145 0 -250 58l88 229q56 -29 107 -29q120 0 120 123v645q0 187 -170 187q-92 0 -152.5 -57.5t-60.5 -159.5v-623h-313z" />
<glyph unicode="&#x14c;" horiz-adv-x="1533" d="M70 682q0 147 48 276t136 225t220 151t292 55q128 0 239.5 -35.5t195.5 -100t144 -152.5t90.5 -194.5t30.5 -224.5q0 -148 -48.5 -277t-137 -224.5t-221.5 -150.5t-293 -55q-212 0 -372 95t-242 254t-82 358zM408 682q0 -177 94.5 -292.5t263.5 -115.5t264.5 115.5 t95.5 292.5q0 176 -95.5 292t-264.5 116q-113 0 -195.5 -55.5t-122.5 -147t-40 -205.5zM426 1475v170h680v-170h-680z" />
<glyph unicode="&#x14d;" horiz-adv-x="1292" d="M66 545q0 258 157.5 415.5t421.5 157.5t423 -157.5t159 -415.5q0 -256 -159 -413t-423 -157t-421.5 156.5t-157.5 413.5zM305 1214v170h680v-170h-680zM397 547q0 -139 65.5 -224t182.5 -85q118 0 183 85t65 224t-65 224t-183 85q-117 0 -182.5 -85t-65.5 -224z" />
<glyph unicode="&#x14e;" horiz-adv-x="1533" d="M70 682q0 147 48 276t136 225t220 151t292 55q128 0 239.5 -35.5t195.5 -100t144 -152.5t90.5 -194.5t30.5 -224.5q0 -148 -48.5 -277t-137 -224.5t-221.5 -150.5t-293 -55q-212 0 -372 95t-242 254t-82 358zM401 1698l148 43q53 -116 217 -119q165 0 217 119l147 -43 q-23 -112 -117 -183t-247 -71t-247.5 71t-117.5 183zM408 682q0 -177 94.5 -292.5t263.5 -115.5t264.5 115.5t95.5 292.5q0 176 -95.5 292t-264.5 116q-113 0 -195.5 -55.5t-122.5 -147t-40 -205.5z" />
<glyph unicode="&#x14f;" horiz-adv-x="1292" d="M66 545q0 258 157.5 415.5t421.5 157.5t423 -157.5t159 -415.5q0 -256 -159 -413t-423 -157t-421.5 156.5t-157.5 413.5zM281 1440l147 43q53 -116 217 -119q165 0 217 119l148 -43q-23 -112 -117.5 -183t-247.5 -71t-247 71t-117 183zM397 547q0 -139 65.5 -224 t182.5 -85q118 0 183 85t65 224t-65 224t-183 85q-117 0 -182.5 -85t-65.5 -224z" />
<glyph unicode="&#x150;" horiz-adv-x="1533" d="M70 682q0 147 48 276t136 225t220 151t292 55q128 0 239.5 -35.5t195.5 -100t144 -152.5t90.5 -194.5t30.5 -224.5q0 -148 -48.5 -277t-137 -224.5t-221.5 -150.5t-293 -55q-212 0 -372 95t-242 254t-82 358zM408 682q0 -177 94.5 -292.5t263.5 -115.5t264.5 115.5 t95.5 292.5q0 176 -95.5 292t-264.5 116q-113 0 -195.5 -55.5t-122.5 -147t-40 -205.5zM479 1485q125 171 170 278l236 -43q-34 -82 -124.5 -165t-182.5 -130zM854 1485q125 171 170 278l236 -43q-34 -82 -125 -165t-183 -130z" />
<glyph unicode="&#x151;" horiz-adv-x="1292" d="M66 545q0 258 157.5 415.5t421.5 157.5t423 -157.5t159 -415.5q0 -256 -159 -413t-423 -157t-421.5 156.5t-157.5 413.5zM360 1227q125 171 170 278l236 -43q-34 -82 -124.5 -165t-182.5 -130zM397 547q0 -139 65.5 -224t182.5 -85q118 0 183 85t65 224t-65 224t-183 85 q-117 0 -182.5 -85t-65.5 -224zM735 1227q125 171 170 278l236 -43q-34 -82 -124.5 -165t-182.5 -130z" />
<glyph unicode="&#x152;" horiz-adv-x="2033" d="M72 682q0 146 46 270t132 216t220 144t302 52h1157v-293h-651v-231h559v-260h-559v-289h672v-291h-1178q-168 0 -302 52t-220 144t-132 216t-46 270zM410 680q0 -182 93 -285.5t269 -103.5h180v780h-180q-176 0 -269 -103.5t-93 -287.5z" />
<glyph unicode="&#x153;" horiz-adv-x="2043" d="M63 545q0 164 67 293.5t195 204.5t296 75q258 0 407 -176q149 176 406 176q253 0 399.5 -154t146.5 -405q0 -19 -6 -94h-786q7 -110 80.5 -166.5t195.5 -56.5q185 0 301 129l201 -189q-207 -207 -520 -207q-267 0 -416 177q-153 -177 -409 -177q-168 0 -296 74.5 t-195 203.5t-67 292zM395 547q0 -139 62.5 -224t175.5 -85t175 85t62 224t-62 224t-175 85t-175.5 -85t-62.5 -224zM1190 678h481q-9 100 -74 153.5t-165 53.5q-103 0 -168.5 -56.5t-73.5 -150.5z" />
<glyph unicode="&#x154;" horiz-adv-x="1390" d="M147 0v1364h641q247 0 379.5 -118.5t132.5 -315.5q0 -141 -73 -242t-180 -151l292 -537h-364l-246 473h-254v-473h-328zM475 733h307q81 0 134 46t53 124q0 79 -53 123.5t-134 44.5h-307v-338zM535 1485q124 164 172 278l254 -43q-34 -82 -125.5 -165t-184.5 -130z" />
<glyph unicode="&#x155;" horiz-adv-x="876" d="M129 0v1094h313v-164q52 85 128.5 134.5t162.5 49.5q84 0 141 -33l-81 -315q-61 33 -123 33q-99 0 -163.5 -75.5t-64.5 -195.5v-528h-313zM262 1227q124 164 172 278l254 -43q-35 -82 -125.5 -165t-183.5 -130z" />
<glyph unicode="&#x156;" horiz-adv-x="1388" d="M147 0v1364h641q247 0 379.5 -118.5t132.5 -315.5q0 -141 -73 -242t-180 -151l292 -537h-364l-246 473h-254v-473h-328zM449 -352q118 166 157 272l258 -29q-33 -84 -121 -168t-178 -133zM475 733h307q81 0 134 46t53 124q0 79 -53 123.5t-134 44.5h-307v-338z" />
<glyph unicode="&#x157;" horiz-adv-x="876" d="M6 -352q120 168 158 272l258 -29q-33 -84 -121 -168t-178 -133zM129 0v1094h313v-164q52 85 128.5 134.5t162.5 49.5q84 0 141 -33l-81 -315q-61 33 -123 33q-99 0 -163.5 -75.5t-64.5 -195.5v-528h-313z" />
<glyph unicode="&#x158;" horiz-adv-x="1390" d="M147 0v1364h641q247 0 379.5 -118.5t132.5 -315.5q0 -141 -73 -242t-180 -151l292 -537h-364l-246 473h-254v-473h-328zM307 1645l72 114q80 -17 163 -54.5t142 -82.5q59 45 142 82.5t163 54.5l72 -114q-161 -104 -266 -199h-222q-105 95 -266 199zM475 733h307 q81 0 134 46t53 124q0 79 -53 123.5t-134 44.5h-307v-338z" />
<glyph unicode="&#x159;" horiz-adv-x="876" d="M106 1386l72 115q80 -17 163 -54.5t142 -82.5q59 45 142 82.5t163 54.5l72 -115q-165 -107 -266 -198h-221q-99 89 -267 198zM129 0v1094h313v-164q52 85 128.5 134.5t162.5 49.5q84 0 141 -33l-81 -315q-61 33 -123 33q-99 0 -163.5 -75.5t-64.5 -195.5v-528h-313z" />
<glyph unicode="&#x15a;" horiz-adv-x="1304" d="M35 317l256 136q123 -211 391 -211q108 0 173 38t65 103q0 80 -95 118q-50 19 -202 46q-92 16 -161.5 35t-139 52.5t-114 77t-72 109.5t-27.5 150q0 193 144.5 305.5t383.5 112.5q176 0 328 -66.5t249 -210.5l-243 -151q-59 83 -148.5 123t-191.5 40q-90 0 -143.5 -32.5 t-53.5 -96.5q0 -23 9 -42t28 -32.5t40.5 -23.5t54.5 -18.5t61 -14.5t69 -13q11 -2 17 -3q78 -14 139.5 -29.5t124.5 -39t108.5 -55t82 -73t55 -98t18.5 -125.5q0 -199 -152.5 -326t-420.5 -127q-221 0 -386 90t-247 252zM506 1485q124 164 172 278l254 -43 q-35 -82 -125.5 -165t-183.5 -130z" />
<glyph unicode="&#x15b;" horiz-adv-x="1155" d="M35 242l213 141q58 -84 155 -125t203 -41q84 0 130 24t46 66q0 23 -12.5 40t-30 27.5t-52.5 19.5t-61.5 13t-76.5 11q-83 11 -146.5 26.5t-123 42.5t-97.5 64t-61 92t-23 125q0 114 63.5 194.5t166 118t231.5 37.5q171 0 304 -59.5t216 -147.5l-186 -166 q-57 59 -143.5 96.5t-190.5 37.5q-68 0 -114 -22.5t-46 -59.5q0 -22 14 -38t42.5 -25.5t61 -16t79.5 -14.5q30 -4 45 -7q105 -17 180.5 -41t139.5 -63.5t96.5 -100.5t32.5 -143q0 -171 -135.5 -272t-366.5 -101q-183 0 -326.5 67t-226.5 200zM442 1227q121 165 162 278 l256 -43q-36 -83 -123.5 -165t-177.5 -130z" />
<glyph unicode="&#x15c;" horiz-adv-x="1304" d="M35 317l256 136q123 -211 391 -211q108 0 173 38t65 103q0 80 -95 118q-50 19 -202 46q-92 16 -161.5 35t-139 52.5t-114 77t-72 109.5t-27.5 150q0 193 144.5 305.5t383.5 112.5q176 0 328 -66.5t249 -210.5l-243 -151q-59 83 -148.5 123t-191.5 40q-90 0 -143.5 -32.5 t-53.5 -96.5q0 -23 9 -42t28 -32.5t40.5 -23.5t54.5 -18.5t61 -14.5t69 -13q11 -2 17 -3q78 -14 139.5 -29.5t124.5 -39t108.5 -55t82 -73t55 -98t18.5 -125.5q0 -199 -152.5 -326t-420.5 -127q-221 0 -386 90t-247 252zM270 1544q164 107 267 199h221q105 -95 266 -199 l-72 -114q-80 17 -163 54.5t-142 82.5q-59 -45 -142 -82.5t-163 -54.5z" />
<glyph unicode="&#x15d;" horiz-adv-x="1155" d="M35 242l213 141q58 -84 155 -125t203 -41q84 0 130 24t46 66q0 23 -12.5 40t-30 27.5t-52.5 19.5t-61.5 13t-76.5 11q-83 11 -146.5 26.5t-123 42.5t-97.5 64t-61 92t-23 125q0 114 63.5 194.5t166 118t231.5 37.5q171 0 304 -59.5t216 -147.5l-186 -166 q-57 59 -143.5 96.5t-190.5 37.5q-68 0 -114 -22.5t-46 -59.5q0 -22 14 -38t42.5 -25.5t61 -16t79.5 -14.5q30 -4 45 -7q105 -17 180.5 -41t139.5 -63.5t96.5 -100.5t32.5 -143q0 -171 -135.5 -272t-366.5 -101q-183 0 -326.5 67t-226.5 200zM195 1286q161 104 266 199h221 q105 -95 266 -199l-71 -115q-80 17 -163 55t-143 83q-60 -45 -142.5 -83t-162.5 -55z" />
<glyph unicode="&#x15e;" horiz-adv-x="1310" d="M37 317l256 136q123 -211 391 -211q108 0 173 38t65 103q0 80 -95 118q-50 19 -202 46q-92 16 -161.5 35t-139 52.5t-114 77t-72 109.5t-27.5 150q0 193 144.5 305.5t383.5 112.5q176 0 328.5 -66.5t249.5 -210.5l-244 -151q-59 83 -148.5 123t-191.5 40 q-90 0 -143.5 -32.5t-53.5 -96.5q0 -23 9 -42t28 -32.5t40.5 -23.5t54.5 -18.5t61 -14.5t69 -13q11 -2 17 -3q78 -14 139.5 -29.5t124.5 -39t108.5 -55t82 -73t55 -98t18.5 -125.5q0 -184 -130 -307t-361 -141q69 -69 69 -150q0 -85 -75 -141t-191 -56q-63 0 -115 16.5 t-78 39.5v190q73 -69 164 -69q49 0 79 20.5t30 60.5q0 46 -43 89q-195 15 -338 102t-217 235z" />
<glyph unicode="&#x15f;" horiz-adv-x="1159" d="M37 242l213 141q58 -84 155 -125t203 -41q84 0 130 24t46 66q0 23 -12.5 40t-30 27.5t-52.5 19.5t-61.5 13t-76.5 11q-83 11 -146.5 26.5t-123 42.5t-97.5 64t-61 92t-23 125q0 114 63.5 194.5t166 118t231.5 37.5q171 0 304 -59.5t216 -147.5l-186 -166 q-57 59 -143.5 96.5t-190.5 37.5q-68 0 -114 -22.5t-46 -59.5q0 -22 14 -38t42.5 -25.5t61 -16t79.5 -14.5q30 -4 45 -7q105 -17 180.5 -41t139.5 -63.5t96.5 -100.5t32.5 -143q0 -154 -110 -251.5t-302 -116.5q70 -70 70 -150q0 -85 -75 -141t-192 -56q-63 0 -114.5 16.5 t-77.5 39.5v190q73 -69 164 -69q49 0 78.5 20.5t29.5 60.5q0 43 -43 86q-160 11 -285 77.5t-198 187.5z" />
<glyph unicode="&#x160;" horiz-adv-x="1304" d="M35 317l256 136q123 -211 391 -211q108 0 173 38t65 103q0 80 -95 118q-50 19 -202 46q-92 16 -161.5 35t-139 52.5t-114 77t-72 109.5t-27.5 150q0 193 144.5 305.5t383.5 112.5q176 0 328 -66.5t249 -210.5l-243 -151q-59 83 -148.5 123t-191.5 40q-90 0 -143.5 -32.5 t-53.5 -96.5q0 -23 9 -42t28 -32.5t40.5 -23.5t54.5 -18.5t61 -14.5t69 -13q11 -2 17 -3q78 -14 139.5 -29.5t124.5 -39t108.5 -55t82 -73t55 -98t18.5 -125.5q0 -199 -152.5 -326t-420.5 -127q-221 0 -386 90t-247 252zM262 1649l72 114q80 -17 163 -54.5t142 -82.5 q59 45 142 82.5t163 54.5l72 -114q-161 -104 -266 -199h-222q-105 95 -266 199z" />
<glyph unicode="&#x161;" horiz-adv-x="1155" d="M35 242l213 141q58 -84 155 -125t203 -41q84 0 130 24t46 66q0 23 -12.5 40t-30 27.5t-52.5 19.5t-61.5 13t-76.5 11q-83 11 -146.5 26.5t-123 42.5t-97.5 64t-61 92t-23 125q0 114 63.5 194.5t166 118t231.5 37.5q171 0 304 -59.5t216 -147.5l-186 -166 q-57 59 -143.5 96.5t-190.5 37.5q-68 0 -114 -22.5t-46 -59.5q0 -22 14 -38t42.5 -25.5t61 -16t79.5 -14.5q30 -4 45 -7q105 -17 180.5 -41t139.5 -63.5t96.5 -100.5t32.5 -143q0 -171 -135.5 -272t-366.5 -101q-183 0 -326.5 67t-226.5 200zM188 1386l72 115 q80 -17 163 -54.5t142 -82.5q59 45 142 82.5t163 54.5l72 -115q-165 -107 -266 -198h-221q-99 89 -267 198z" />
<glyph unicode="&#x21a;" horiz-adv-x="1288" d="M57 1071v293h1174v-293h-424v-1071h-328v1071h-422zM362 -352q120 168 158 272l258 -29q-33 -84 -121 -168t-178 -133z" />
<glyph unicode="&#x162;" horiz-adv-x="1288" d="M57 1071v293h1174v-293h-424v-1071h-328v1071h-422zM362 -352q120 168 158 272l258 -29q-33 -84 -121 -168t-178 -133z" />
<glyph unicode="&#x21b;" horiz-adv-x="901" d="M33 856v238h172v270h315v-270h311v-238h-311v-494q0 -114 113 -114q73 0 133 49l117 -225q-129 -97 -303 -97q-220 0 -312 138q-63 92 -63 252v491h-172zM246 -352q118 166 157 272l259 -29q-33 -83 -121 -167.5t-179 -133.5z" />
<glyph unicode="&#x163;" horiz-adv-x="901" d="M33 856v238h172v270h315v-270h311v-238h-311v-494q0 -114 113 -114q73 0 133 49l117 -225q-129 -97 -303 -97q-220 0 -312 138q-63 92 -63 252v491h-172zM246 -352q118 166 157 272l259 -29q-33 -83 -121 -167.5t-179 -133.5z" />
<glyph unicode="&#x164;" horiz-adv-x="1288" d="M57 1071v293h1174v-293h-424v-1071h-328v1071h-422zM266 1645l72 114q80 -17 163 -54.5t142 -82.5q59 45 142 82.5t163 54.5l72 -114q-161 -104 -266 -199h-222q-105 95 -266 199z" />
<glyph unicode="&#x165;" horiz-adv-x="903" d="M33 856v238h172v270h315v-270h311v-238h-311v-494q0 -114 113 -114q73 0 133 49l117 -225q-129 -97 -303 -97q-220 0 -312 138q-63 92 -63 252v491h-172zM643 1229q86 71 86 145q-1 27 -24 72t-23 88v33h201v-119q0 -91 -40 -161t-132 -136z" />
<glyph unicode="&#x166;" horiz-adv-x="1288" d="M57 1071v293h1174v-293h-424v-364h203v-166h-203v-541h-328v541h-203v166h203v364h-422z" />
<glyph unicode="&#x167;" horiz-adv-x="903" d="M33 510v166h174v180h-174v238h174v270h313v-270h311v-238h-311v-180h201v-166h-201v-148q0 -114 113 -114q71 0 135 49l117 -225q-133 -97 -305 -97q-220 0 -312 138q-61 89 -61 252v145h-174z" />
<glyph unicode="&#x168;" horiz-adv-x="1460" d="M133 528v836h328v-836q0 -125 68.5 -190.5t201.5 -65.5q130 0 200 66t70 190v836h326v-836q0 -262 -162 -407.5t-434 -145.5q-275 0 -436.5 145t-161.5 408zM334 1526q36 89 104 146t154 57q59 0 146 -40t126 -40t79.5 22.5t72.5 63.5l110 -76q-38 -89 -105.5 -146 t-152.5 -57q-60 0 -147.5 40t-124.5 40q-40 0 -81 -22.5t-71 -63.5z" />
<glyph unicode="&#x169;" horiz-adv-x="1257" d="M119 369v725h313v-654q0 -186 170 -186q92 0 152.5 57.5t60.5 159.5v623h313v-1094h-313v123q-138 -148 -328 -148q-179 0 -273.5 110t-94.5 284zM236 1268q36 89 103.5 145.5t154.5 56.5q59 0 146 -39.5t126 -39.5t79.5 22.5t72.5 63.5l110 -76q-38 -89 -105.5 -146 t-152.5 -57q-60 0 -147.5 40t-124.5 40q-40 0 -81 -22.5t-71 -63.5z" />
<glyph unicode="&#x16a;" horiz-adv-x="1460" d="M133 528v836h328v-836q0 -125 68.5 -190.5t201.5 -65.5q130 0 200 66t70 190v836h326v-836q0 -262 -162 -407.5t-434 -145.5q-275 0 -436.5 145t-161.5 408zM391 1475v170h680v-170h-680z" />
<glyph unicode="&#x16b;" horiz-adv-x="1257" d="M119 369v725h313v-654q0 -186 170 -186q92 0 152.5 57.5t60.5 159.5v623h313v-1094h-313v123q-138 -148 -328 -148q-179 0 -273.5 110t-94.5 284zM291 1214v170h680v-170h-680z" />
<glyph unicode="&#x16c;" horiz-adv-x="1460" d="M133 528v836h328v-836q0 -125 68.5 -190.5t201.5 -65.5q130 0 200 66t70 190v836h326v-836q0 -262 -162 -407.5t-434 -145.5q-275 0 -436.5 145t-161.5 408zM367 1698l147 43q53 -116 217 -119q165 0 217 119l148 -43q-23 -112 -117.5 -183t-247.5 -71t-247 71t-117 183z " />
<glyph unicode="&#x16d;" horiz-adv-x="1257" d="M119 369v725h313v-654q0 -186 170 -186q92 0 152.5 57.5t60.5 159.5v623h313v-1094h-313v123q-138 -148 -328 -148q-179 0 -273.5 110t-94.5 284zM260 1440l148 43q53 -116 217 -119q165 0 217 119l147 -43q-23 -112 -117 -183t-247 -71t-247.5 71t-117.5 183z" />
<glyph unicode="&#x16e;" horiz-adv-x="1460" d="M133 528v836h328v-836q0 -125 68.5 -190.5t201.5 -65.5q130 0 200 66t70 190v836h326v-836q0 -262 -162 -407.5t-434 -145.5q-275 0 -436.5 145t-161.5 408zM475 1585q0 92 71.5 156.5t182.5 64.5t182.5 -64.5t71.5 -156.5t-71.5 -155.5t-182.5 -63.5t-182.5 63.5 t-71.5 155.5zM627 1583q0 -41 30.5 -71.5t71.5 -30.5q43 0 74 30.5t31 71.5q0 43 -31 74t-74 31q-41 0 -71.5 -31t-30.5 -74z" />
<glyph unicode="&#x16f;" horiz-adv-x="1257" d="M119 369v725h313v-654q0 -186 170 -186q92 0 152.5 57.5t60.5 159.5v623h313v-1094h-313v123q-138 -148 -328 -148q-179 0 -273.5 110t-94.5 284zM371 1380q0 93 71.5 157.5t182.5 64.5t182.5 -64.5t71.5 -157.5q0 -92 -71.5 -155.5t-182.5 -63.5t-182.5 63.5 t-71.5 155.5zM522 1378q0 -41 31 -71.5t72 -30.5q43 0 73.5 30.5t30.5 71.5q0 43 -30.5 74t-73.5 31q-41 0 -72 -31t-31 -74z" />
<glyph unicode="&#x170;" horiz-adv-x="1460" d="M133 528v836h328v-836q0 -125 68.5 -190.5t201.5 -65.5q130 0 200 66t70 190v836h326v-836q0 -262 -162 -407.5t-434 -145.5q-275 0 -436.5 145t-161.5 408zM416 1485q125 171 170 278l235 -43q-34 -82 -124.5 -165t-182.5 -130zM791 1485q125 171 170 278l235 -43 q-34 -82 -124.5 -165t-182.5 -130z" />
<glyph unicode="&#x171;" horiz-adv-x="1257" d="M119 369v725h313v-654q0 -186 170 -186q92 0 152.5 57.5t60.5 159.5v623h313v-1094h-313v123q-138 -148 -328 -148q-179 0 -273.5 110t-94.5 284zM332 1227q125 171 170 278l235 -43q-34 -82 -124.5 -165t-182.5 -130zM707 1227q125 171 170 278l235 -43 q-34 -82 -124.5 -165t-182.5 -130z" />
<glyph unicode="&#x172;" horiz-adv-x="1462" d="M133 528v836h328v-836q0 -125 68 -190.5t200 -65.5q131 0 201.5 66t70.5 190v836h326v-836q0 -64 -9 -118.5t-22 -95t-37.5 -78.5t-45 -62t-56 -52t-60 -44t-65.5 -41q-36 -23 -56 -38.5t-37 -41t-17 -55.5q0 -43 29.5 -64.5t80.5 -21.5q91 0 164 73v-194 q-27 -24 -79 -42t-118 -18q-116 0 -190 54.5t-74 140.5q0 88 80 152q-51 -7 -88 -7q-272 0 -433 145t-161 408z" />
<glyph unicode="&#x173;" horiz-adv-x="1257" d="M119 369v725h313v-650q0 -190 170 -190q92 0 152.5 57.5t60.5 159.5v623h313v-1094q-112 -3 -170.5 -34t-58.5 -77q0 -33 30.5 -53t80.5 -20q80 0 127 43v-185q-57 -39 -154 -39q-121 0 -194.5 55t-73.5 142q0 56 29 101t71 67v123q-138 -148 -328 -148q-92 0 -164 31.5 t-115.5 86.5t-66 125t-22.5 151z" />
<glyph unicode="&#x174;" horiz-adv-x="1980" d="M37 1364h354l203 -907l250 907h293l249 -909l203 909h361l-379 -1364h-354l-230 860l-231 -860h-357zM618 1544q164 107 267 199h221q105 -95 266 -199l-72 -114q-80 17 -163 54.5t-142 82.5q-59 -45 -142 -82.5t-163 -54.5z" />
<glyph unicode="&#x175;" horiz-adv-x="1697" d="M35 1094h342l147 -688l199 688h258l197 -688l147 688h340l-305 -1094h-318l-192 686l-197 -686h-317zM475 1286q161 104 266 199h222q105 -95 266 -199l-72 -115q-80 17 -162.5 55t-142.5 83q-60 -45 -142.5 -83t-162.5 -55z" />
<glyph unicode="&#x176;" horiz-adv-x="1370" d="M-4 1364h381l309 -543l311 543h379l-528 -840v-524h-326v520zM305 1544q161 104 266 199h222q105 -95 266 -199l-72 -114q-80 17 -163 54.5t-142 82.5q-59 -45 -142 -82.5t-163 -54.5z" />
<glyph unicode="&#x177;" horiz-adv-x="1173" d="M0 1094h358l250 -684l226 684h335l-428 -1127q-69 -180 -162 -262t-251 -82q-161 0 -291 88l119 209q62 -43 125 -43q49 0 81.5 26.5t57.5 78.5l26 51zM215 1286q161 104 266 199h221q103 -92 267 -199l-72 -115q-80 17 -162.5 55t-142.5 83q-60 -45 -142.5 -83 t-162.5 -55z" />
<glyph unicode="&#x178;" horiz-adv-x="1370" d="M-4 1364h381l309 -543l311 543h379l-528 -840v-524h-326v520zM336 1462v234h229v-234h-229zM801 1462v234h227v-234h-227z" />
<glyph unicode="&#x179;" horiz-adv-x="1306" d="M76 0v252l678 819h-650v293h1104v-238l-686 -835h705v-291h-1151zM500 1485q124 164 172 278l254 -43q-34 -82 -125.5 -165t-184.5 -130z" />
<glyph unicode="&#x17a;" horiz-adv-x="1112" d="M74 0v225l499 598h-475v271h920v-213l-510 -611h526v-270h-960zM418 1227q121 165 162 278l256 -43q-36 -83 -123.5 -165t-177.5 -130z" />
<glyph unicode="&#x17b;" horiz-adv-x="1306" d="M76 0v252l678 819h-650v293h1104v-238l-686 -835h705v-291h-1151zM524 1470v226h246v-226h-246z" />
<glyph unicode="&#x17c;" horiz-adv-x="1112" d="M74 0v225l499 598h-475v271h920v-213l-510 -611h526v-270h-960zM426 1212v226h246v-226h-246z" />
<glyph unicode="&#x17d;" horiz-adv-x="1306" d="M76 0v252l678 819h-650v293h1104v-238l-686 -835h705v-291h-1151zM258 1645l72 114q80 -17 163 -54.5t142 -82.5q59 45 142 82.5t163 54.5l72 -114q-164 -107 -267 -199h-221q-105 95 -266 199z" />
<glyph unicode="&#x17e;" horiz-adv-x="1112" d="M74 0v225l499 598h-475v271h920v-213l-510 -611h526v-270h-960zM168 1386l72 115q80 -17 163 -54.5t142 -82.5q59 45 142 82.5t163 54.5l72 -115q-168 -109 -267 -198h-221q-101 91 -266 198z" />
<glyph unicode="&#x192;" d="M39 -178l104 241q62 -36 125 -36q116 0 138 120l83 484h-217l43 243h220l22 140q30 175 132 276t288 101q137 0 252 -60l-103 -244q-35 20 -60.5 28.5t-61.5 8.5q-121 0 -140 -118l-22 -132h254l-45 -243h-254l-86 -492q-30 -176 -131.5 -276.5t-286.5 -100.5 q-141 0 -254 60z" />
<glyph unicode="&#x1fa;" horiz-adv-x="1392" d="M-4 0l473 1272q-72 69 -72 160q0 106 88 182t211 76q124 0 211.5 -76t87.5 -182q0 -94 -69 -160l471 -1272h-365l-94 291h-492l-94 -291h-356zM512 1767q123 163 172 279l254 -43q-35 -82 -125.5 -165t-183.5 -130zM520 553h342l-170 539zM586 1430q0 -46 32.5 -77.5 t79.5 -31.5q46 0 77.5 31.5t31.5 77.5q0 47 -31.5 79.5t-77.5 32.5q-47 0 -79.5 -32.5t-32.5 -79.5z" />
<glyph unicode="&#x1fb;" horiz-adv-x="1200" d="M57 315q0 300 402 338q81 8 117 12.5t78 15.5t56.5 29.5t14.5 47.5q0 30 -16 51.5t-43.5 32.5t-56 15.5t-60.5 4.5q-87 0 -179.5 -26.5t-166.5 -75.5l-105 233q218 125 473 125q469 0 469 -381v-467q0 -37 14 -52t44 -15q36 0 53 14l33 -197q-57 -36 -170 -36 q-82 0 -145 35t-87 104q-55 -77 -148 -112.5t-198 -35.5q-171 0 -275 89.5t-104 250.5zM311 1372q0 92 71.5 156.5t182.5 64.5t182.5 -64.5t71.5 -156.5t-71.5 -155.5t-182.5 -63.5t-182.5 63.5t-71.5 155.5zM362 1681q125 166 173 279l253 -43q-35 -82 -125.5 -165 t-183.5 -130zM369 326q0 -61 41.5 -92t111.5 -31q91 0 147 50.5t56 149.5v125q-11 -13 -26 -23t-25.5 -15.5t-35 -11.5t-33 -8t-41.5 -7t-40 -6q-35 -5 -58 -12t-47.5 -21t-37 -38.5t-12.5 -59.5zM463 1370q0 -41 30.5 -71.5t71.5 -30.5q43 0 74 30.5t31 71.5q0 43 -31 74 t-74 31q-41 0 -71.5 -31t-30.5 -74z" />
<glyph unicode="&#x1fc;" horiz-adv-x="1986" d="M-14 0l690 1364h1206v-293h-633v-231h541v-260h-541v-289h654v-291h-979v291h-441l-141 -291h-356zM606 553h318v553h-64zM860 1485q124 164 172 278l254 -43q-35 -82 -125.5 -165t-183.5 -130z" />
<glyph unicode="&#x1fd;" horiz-adv-x="1894" d="M57 317q0 76 26.5 134.5t65 93t96.5 58.5t106 34t108 16q14 2 40 4q139 15 177 32q49 21 49 69q0 30 -16 51.5t-43.5 32.5t-56 15.5t-60.5 4.5q-87 0 -179.5 -26.5t-166.5 -75.5l-105 233q213 125 457 125q252 0 363 -141q135 141 366 141q253 0 400 -154.5t147 -404.5 q0 -19 -6 -94h-787q7 -110 81 -166.5t196 -56.5q185 0 301 129l201 -189q-207 -207 -521 -207q-135 0 -245 43.5t-179 128.5q-53 -80 -157.5 -126t-241.5 -46q-194 0 -305 88.5t-111 253.5zM369 326q0 -61 41.5 -92t111.5 -31q91 0 147 50.5t56 149.5v125q-11 -13 -26 -23 t-25.5 -15.5t-35 -11.5t-33 -8t-41.5 -7t-40 -6q-35 -5 -58 -12t-47.5 -21t-37 -38.5t-12.5 -59.5zM776 1227q124 164 172 278l254 -43q-35 -82 -125.5 -165t-183.5 -130zM1040 678h482q-9 100 -74.5 153.5t-165.5 53.5q-103 0 -168.5 -56.5t-73.5 -150.5z" />
<glyph unicode="&#x1fe;" horiz-adv-x="1533" d="M70 682q0 147 48 276t136 225t220 151t292 55q188 0 342 -80l63 90l132 -92l-62 -88q108 -97 166.5 -236t58.5 -301q0 -148 -48.5 -277t-137 -224.5t-221.5 -150.5t-293 -55q-192 0 -342 78l-62 -88l-131 92l60 84q-107 97 -164 236.5t-57 304.5zM408 682q0 -159 75 -266 l445 637q-70 37 -162 37q-113 0 -195.5 -55.5t-122.5 -147t-40 -205.5zM604 309q63 -35 162 -35q169 0 264.5 115.5t95.5 292.5q0 155 -75 262zM614 1485q124 164 172 278l254 -43q-35 -82 -125.5 -165t-183.5 -130z" />
<glyph unicode="&#x1ff;" horiz-adv-x="1292" d="M66 545q0 258 157.5 415.5t421.5 157.5q145 0 275 -57l45 63l114 -80l-41 -59q189 -156 189 -440q0 -256 -159 -413t-423 -157q-149 0 -274 56l-43 -62l-117 80l39 55q-88 76 -136 189.5t-48 251.5zM395 547q0 -107 37 -180l328 469q-48 28 -115 28q-119 0 -184.5 -87.5 t-65.5 -229.5zM516 1227q124 164 172 278l254 -43q-35 -82 -125.5 -165t-183.5 -130zM528 258q50 -27 117 -27q120 0 186 86.5t66 229.5q0 106 -41 180z" />
<glyph unicode="&#x218;" horiz-adv-x="1304" d="M35 317l256 136q123 -211 391 -211q108 0 173 38t65 103q0 80 -95 118q-50 19 -202 46q-92 16 -161.5 35t-139 52.5t-114 77t-72 109.5t-27.5 150q0 193 144.5 305.5t383.5 112.5q176 0 328 -66.5t249 -210.5l-243 -151q-59 83 -148.5 123t-191.5 40q-90 0 -143.5 -32.5 t-53.5 -96.5q0 -23 9 -42t28 -32.5t40.5 -23.5t54.5 -18.5t61 -14.5t69 -13q11 -2 17 -3q78 -14 139.5 -29.5t124.5 -39t108.5 -55t82 -73t55 -98t18.5 -125.5q0 -199 -152.5 -326t-420.5 -127q-221 0 -386 90t-247 252zM373 -352q118 166 157 272l258 -29 q-33 -84 -121 -168t-178 -133z" />
<glyph unicode="&#x219;" horiz-adv-x="1155" d="M35 242l213 141q58 -84 155 -125t203 -41q84 0 130 24t46 66q0 23 -12.5 40t-30 27.5t-52.5 19.5t-61.5 13t-76.5 11q-83 11 -146.5 26.5t-123 42.5t-97.5 64t-61 92t-23 125q0 114 63.5 194.5t166 118t231.5 37.5q171 0 304 -59.5t216 -147.5l-186 -166 q-57 59 -143.5 96.5t-190.5 37.5q-68 0 -114 -22.5t-46 -59.5q0 -22 14 -38t42.5 -25.5t61 -16t79.5 -14.5q30 -4 45 -7q105 -17 180.5 -41t139.5 -63.5t96.5 -100.5t32.5 -143q0 -171 -135.5 -272t-366.5 -101q-183 0 -326.5 67t-226.5 200zM293 -352q120 168 158 272 l258 -29q-33 -84 -121 -168t-178 -133z" />
<glyph unicode="&#x237;" horiz-adv-x="573" d="M-184 -315l86 229q56 -29 106 -29q63 0 92 35t29 105v1069h315v-1063q0 -200 -105 -302t-290 -102q-137 0 -233 58z" />
<glyph unicode="&#x259;" horiz-adv-x="1257" d="M63 535q0 27 5 90h788q-7 110 -81 168.5t-195 58.5q-185 0 -301 -129l-201 188q207 207 520 207q143 0 257 -43t187 -119t111.5 -178.5t38.5 -224.5q0 -166 -67 -296t-198.5 -206t-308.5 -76q-257 0 -406 154.5t-149 405.5zM373 426q9 -104 74 -160.5t165 -56.5 q103 0 168 57.5t74 159.5h-481z" />
<glyph unicode="&#x2c6;" horiz-adv-x="696" d="M-27 1286q164 107 267 199h221q105 -95 266 -199l-72 -115q-80 17 -162.5 55t-142.5 83q-60 -45 -142.5 -83t-162.5 -55z" />
<glyph unicode="&#x2c7;" horiz-adv-x="696" d="M-27 1386l72 115q80 -17 163 -54.5t142 -82.5q59 45 142 82.5t163 54.5l72 -115q-165 -107 -266 -198h-221q-99 89 -267 198z" />
<glyph unicode="&#x2d8;" horiz-adv-x="696" d="M-14 1440l147 43q53 -116 217 -119q165 0 217 119l148 -43q-23 -112 -117.5 -183t-247.5 -71t-247 71t-117 183z" />
<glyph unicode="&#x2d9;" horiz-adv-x="661" d="M209 1212v226h246v-226h-246z" />
<glyph unicode="&#x2da;" horiz-adv-x="661" d="M82 1380q0 93 71.5 157.5t182.5 64.5t182.5 -64.5t71.5 -157.5q0 -92 -71.5 -155.5t-182.5 -63.5t-182.5 63.5t-71.5 155.5zM233 1378q0 -41 31 -71.5t72 -30.5q43 0 73.5 30.5t30.5 71.5q0 43 -30.5 74t-73.5 31q-41 0 -72 -31t-31 -74z" />
<glyph unicode="&#x2db;" horiz-adv-x="661" d="M104 -174q0 71 53 136.5t148 105.5h137q-68 -34 -109.5 -79.5t-41.5 -94.5q0 -42 31 -64.5t84 -22.5q92 0 159 60v-184q-28 -23 -79.5 -39.5t-114.5 -16.5q-118 0 -192.5 56t-74.5 143z" />
<glyph unicode="&#x2dc;" horiz-adv-x="757" d="M-18 1268q36 89 103.5 145.5t154.5 56.5q59 0 146 -39.5t126 -39.5t79.5 22.5t72.5 63.5l110 -76q-38 -89 -105.5 -146t-152.5 -57q-60 0 -147.5 40t-124.5 40q-40 0 -81 -22.5t-71 -63.5z" />
<glyph unicode="&#x2dd;" horiz-adv-x="837" d="M106 1227q125 171 170 278l236 -43q-34 -82 -124.5 -165t-182.5 -130zM481 1227q125 171 170 278l236 -43q-34 -82 -124.5 -165t-182.5 -130z" />
<glyph unicode="&#x2206;" horiz-adv-x="1277" d="M61 0v29l566 1433h24l566 -1433v-29h-1156zM344 199h590l-295 753z" />
<glyph unicode="&#x394;" horiz-adv-x="1277" d="M61 0v29l566 1433h24l566 -1433v-29h-1156zM344 199h590l-295 753z" />
<glyph unicode="&#x2126;" horiz-adv-x="1280" d="M88 819q0 249 153.5 409.5t399.5 160.5q162 0 287.5 -73.5t194.5 -203.5t69 -295q0 -53 -8 -105t-18.5 -93.5t-32 -89.5t-37 -78.5t-45 -75.5t-45 -66.5t-48 -65.5t-43.5 -59h246v-184h-436l-31 176q82 107 128 172.5t90 147t62.5 158t18.5 163.5q0 170 -96.5 280.5 t-255.5 110.5t-255.5 -110.5t-96.5 -280.5q0 -87 18.5 -163.5t62.5 -158t90 -147t128 -172.5l-33 -176h-434v184h246q-12 16 -44.5 60t-48.5 65.5t-45.5 66.5t-45 75.5t-37 78.5t-32 89.5t-18.5 94t-8 105.5z" />
<glyph unicode="&#x3a9;" horiz-adv-x="1280" d="M88 819q0 249 153.5 409.5t399.5 160.5q162 0 287.5 -73.5t194.5 -203.5t69 -295q0 -53 -8 -105t-18.5 -93.5t-32 -89.5t-37 -78.5t-45 -75.5t-45 -66.5t-48 -65.5t-43.5 -59h246v-184h-436l-31 176q82 107 128 172.5t90 147t62.5 158t18.5 163.5q0 170 -96.5 280.5 t-255.5 110.5t-255.5 -110.5t-96.5 -280.5q0 -87 18.5 -163.5t62.5 -158t90 -147t128 -172.5l-33 -176h-434v184h246q-12 16 -44.5 60t-48.5 65.5t-45.5 66.5t-45 75.5t-37 78.5t-32 89.5t-18.5 94t-8 105.5z" />
<glyph unicode="&#x3c0;" horiz-adv-x="1200" d="M51 895v199h1098v-199h-143v-895h-199v895h-414v-895h-198v895h-144z" />
<glyph unicode="&#x1e80;" horiz-adv-x="1980" d="M37 1364h354l203 -907l250 907h293l249 -909l203 909h361l-379 -1364h-354l-230 860l-231 -860h-357zM709 1720l256 43q40 -100 170 -278l-117 -60q-91 47 -182 130t-127 165z" />
<glyph unicode="&#x1e81;" horiz-adv-x="1697" d="M35 1094h342l147 -688l199 688h258l197 -688l147 688h340l-305 -1094h-318l-192 686l-197 -686h-317zM563 1462l256 43q40 -100 170 -278l-117 -60q-91 47 -182 130t-127 165z" />
<glyph unicode="&#x1e82;" horiz-adv-x="1980" d="M37 1364h354l203 -907l250 907h293l249 -909l203 909h361l-379 -1364h-354l-230 860l-231 -860h-357zM844 1485q124 164 172 278l254 -43q-35 -82 -125.5 -165t-183.5 -130z" />
<glyph unicode="&#x1e83;" horiz-adv-x="1697" d="M35 1094h342l147 -688l199 688h258l197 -688l147 688h340l-305 -1094h-318l-192 686l-197 -686h-317zM711 1227q124 164 172 278l254 -43q-34 -82 -125.5 -165t-184.5 -130z" />
<glyph unicode="&#x1e84;" horiz-adv-x="1980" d="M37 1364h354l203 -907l250 907h293l249 -909l203 909h361l-379 -1364h-354l-230 860l-231 -860h-357zM643 1462v234h229v-234h-229zM1108 1462v234h227v-234h-227z" />
<glyph unicode="&#x1e85;" horiz-adv-x="1697" d="M35 1094h342l147 -688l199 688h258l197 -688l147 688h340l-305 -1094h-318l-192 686l-197 -686h-317zM500 1204v234h229v-234h-229zM965 1204v234h227v-234h-227z" />
<glyph unicode="&#x1ef2;" horiz-adv-x="1370" d="M-4 1364h381l309 -543l311 543h379l-528 -840v-524h-326v520zM410 1720l256 43q40 -100 170 -278l-117 -60q-91 47 -182 130t-127 165z" />
<glyph unicode="&#x1ef3;" horiz-adv-x="1173" d="M0 1094h358l250 -684l226 684h335l-428 -1127q-69 -180 -162 -262t-251 -82q-161 0 -291 88l119 209q62 -43 125 -43q49 0 81.5 26.5t57.5 78.5l26 51zM303 1462l256 43q40 -100 170 -278l-117 -60q-91 47 -182 130t-127 165z" />
<glyph unicode="&#x2000;" horiz-adv-x="1023" />
<glyph unicode="&#x2001;" horiz-adv-x="2046" />
<glyph unicode="&#x2002;" horiz-adv-x="1023" />
<glyph unicode="&#x2003;" horiz-adv-x="2046" />
<glyph unicode="&#x2004;" horiz-adv-x="682" />
<glyph unicode="&#x2005;" horiz-adv-x="511" />
<glyph unicode="&#x2006;" horiz-adv-x="341" />
<glyph unicode="&#x2007;" horiz-adv-x="341" />
<glyph unicode="&#x2008;" horiz-adv-x="255" />
<glyph unicode="&#x2009;" horiz-adv-x="409" />
<glyph unicode="&#x200a;" horiz-adv-x="113" />
<glyph unicode="&#x2010;" horiz-adv-x="843" d="M104 436v279h635v-279h-635z" />
<glyph unicode="&#x2011;" horiz-adv-x="843" d="M104 436v279h635v-279h-635z" />
<glyph unicode="&#x2012;" horiz-adv-x="843" d="M104 436v279h635v-279h-635z" />
<glyph unicode="&#x2013;" d="M82 492v260h1063v-260h-1063z" />
<glyph unicode="&#x2014;" horiz-adv-x="1867" d="M106 492v260h1655v-260h-1655z" />
<glyph unicode="&#x2018;" horiz-adv-x="540" d="M98 696v244q0 138 56.5 244t185.5 205l100 -125q-70 -45 -111.5 -106t-41.5 -130v-33h151v-299h-340z" />
<glyph unicode="&#x2019;" horiz-adv-x="499" d="M88 797q154 98 154 237v31h-150v299h338v-244q0 -138 -56.5 -242.5t-185.5 -205.5z" />
<glyph unicode="&#x201a;" horiz-adv-x="573" d="M113 -240q71 45 112 106t41 132v29h-149v301h338v-242q0 -139 -56.5 -243.5t-185.5 -204.5z" />
<glyph unicode="&#x201c;" horiz-adv-x="1036" d="M98 696v244q0 138 56.5 244t185.5 205l100 -125q-70 -45 -111.5 -106t-41.5 -130v-33h151v-299h-340zM594 696v242q0 140 57 246t187 205l98 -125q-70 -44 -111 -105t-41 -131v-33h150v-299h-340z" />
<glyph unicode="&#x201d;" horiz-adv-x="995" d="M88 797q154 98 154 237v31h-150v299h338v-244q0 -138 -56.5 -242.5t-185.5 -205.5zM586 797q151 98 151 237v31h-149v299h338v-244q0 -138 -56.5 -242.5t-185.5 -205.5z" />
<glyph unicode="&#x201e;" horiz-adv-x="1069" d="M113 -240q71 45 112 106t41 132v29h-149v301h338v-242q0 -139 -56.5 -243.5t-185.5 -204.5zM610 -240q70 45 111 106.5t41 131.5v29h-150v301h338v-242q0 -140 -56 -244t-185 -204z" />
<glyph unicode="&#x2020;" horiz-adv-x="1079" d="M72 813v260h321v291h295v-291h320v-260h-320v-813h-295v813h-321z" />
<glyph unicode="&#x2021;" horiz-adv-x="1116" d="M90 291v260h322v262h-322v260h322v291h295v-291h319v-260h-319v-262h319v-260h-319v-291h-295v291h-322z" />
<glyph unicode="&#x2022;" horiz-adv-x="817" d="M68 682q0 141 100 241.5t240 100.5q141 0 241.5 -100.5t100.5 -241.5q0 -140 -100.5 -240t-241.5 -100q-140 0 -240 100t-100 240z" />
<glyph unicode="&#x2025;" horiz-adv-x="1136" d="M119 0v332h338v-332h-338zM680 0v332h338v-332h-338z" />
<glyph unicode="&#x2026;" horiz-adv-x="1689" d="M119 0v332h338v-332h-338zM676 0v332h338v-332h-338zM1233 0v332h338v-332h-338z" />
<glyph unicode="&#x202f;" horiz-adv-x="409" />
<glyph unicode="&#x2030;" horiz-adv-x="2404" d="M68 1026q0 150 103 253t253 103q149 0 251.5 -103.5t102.5 -252.5q0 -151 -102.5 -254.5t-251.5 -103.5q-151 0 -253.5 103.5t-102.5 254.5zM272 1026q0 -66 43 -110t109 -44q64 0 106.5 44t42.5 110q0 64 -42.5 108t-106.5 44q-65 0 -108.5 -44t-43.5 -108zM342 0 l727 1364h238l-729 -1364h-236zM870 340q0 149 103 252.5t252 103.5q150 0 253 -103t103 -253q0 -151 -102.5 -254.5t-253.5 -103.5q-149 0 -252 103.5t-103 254.5zM1075 340q0 -65 43 -109.5t107 -44.5t107.5 44.5t43.5 109.5t-43.5 108.5t-107.5 43.5t-107 -43.5 t-43 -108.5zM1628 340q0 150 102 253t252 103q149 0 252 -103.5t103 -252.5q0 -151 -103 -254.5t-252 -103.5q-150 0 -252 103.5t-102 254.5zM1833 340q0 -65 42.5 -109.5t106.5 -44.5t107 44.5t43 109.5t-43 108.5t-107 43.5t-106.5 -43.5t-42.5 -108.5z" />
<glyph unicode="&#x2039;" horiz-adv-x="595" d="M39 487v115l332 418l151 -113l-229 -362l229 -363l-151 -112z" />
<glyph unicode="&#x203a;" horiz-adv-x="595" d="M74 182l229 363l-229 362l151 113l332 -418v-115l-332 -417z" />
<glyph unicode="&#x2044;" horiz-adv-x="536" d="M-307 0l921 1364h232l-922 -1364h-231z" />
<glyph unicode="&#x205f;" horiz-adv-x="511" />
<glyph unicode="&#x2070;" horiz-adv-x="851" d="M61 1116q0 80 10.5 146t36.5 124.5t66.5 98.5t104 63t145.5 23q369 0 369 -455q0 -459 -369 -459q-102 0 -174.5 34.5t-113 99t-58 144t-17.5 181.5zM299 1116q0 -60 5 -103.5t17.5 -82t38.5 -58.5t64 -20q39 0 65.5 20t40 58.5t18.5 82t5 103.5q0 126 -27 194t-102 68 q-38 0 -64 -19.5t-38.5 -57.5t-17.5 -81t-5 -104z" />
<glyph unicode="&#x2074;" horiz-adv-x="833" d="M33 848v166q69 126 112.5 274.5t44.5 265.5h232q-3 -234 -152 -512h191v301h223v-301h117v-194h-117v-174h-227v174h-424z" />
<glyph unicode="&#x2075;" horiz-adv-x="817" d="M35 827l168 115q69 -80 190 -80q54 0 93.5 30.5t39.5 82.5t-37.5 83.5t-105.5 31.5q-93 0 -158 -74l-137 53l31 485h600v-211h-410q-3 -48 -20 -133q64 45 162 45q141 0 229 -75t88 -215q0 -56 -22.5 -109t-65.5 -98.5t-116 -73t-165 -27.5q-223 0 -364 170z" />
<glyph unicode="&#x2076;" horiz-adv-x="821" d="M53 1008q0 290 279 546h332q-121 -83 -192.5 -150t-113.5 -147q50 37 129 37q132 0 216.5 -82.5t84.5 -220.5q0 -149 -101 -241.5t-265 -92.5q-171 0 -270 91.5t-99 259.5zM295 987q0 -61 32.5 -97t94.5 -36q60 0 92.5 36t32.5 99q0 61 -32.5 97t-92.5 36q-61 0 -94 -37 t-33 -98z" />
<glyph unicode="&#x2077;" horiz-adv-x="753" d="M27 1343v211h718v-159q-337 -400 -327 -721h-264q1 100 30 199.5t79.5 189.5t92.5 150t99 130h-428z" />
<glyph unicode="&#x2078;" horiz-adv-x="849" d="M57 928q0 66 30.5 122t94.5 89q-96 59 -96 180q0 120 90 186t250 66q162 0 251 -65.5t89 -186.5q0 -113 -100 -180q129 -65 129 -211q0 -128 -98.5 -199.5t-270.5 -71.5t-270.5 71.5t-98.5 199.5zM293 940q0 -55 38 -83t95 -28t95 28t38 83t-38 84t-95 29t-95 -29 t-38 -84zM319 1309q0 -48 30.5 -72.5t74.5 -24.5q45 0 76.5 24.5t31.5 72.5q0 44 -31 67t-75 23q-45 0 -76 -23t-31 -67z" />
<glyph unicode="&#x2079;" horiz-adv-x="823" d="M33 1237q0 149 101.5 241.5t264.5 92.5q172 0 271.5 -91t99.5 -259q0 -289 -281 -547h-329q119 79 190.5 147t112.5 148q-51 -35 -127 -35q-134 0 -218.5 82.5t-84.5 220.5zM274 1239q0 -61 32.5 -97t92.5 -36q61 0 95 37.5t34 97.5q0 61 -33.5 97t-95.5 36 q-60 0 -92.5 -36t-32.5 -99z" />
<glyph unicode="&#x2080;" horiz-adv-x="851" d="M61 252q0 80 10.5 146t36.5 124.5t66.5 98.5t104 63t145.5 23q369 0 369 -455q0 -459 -369 -459q-102 0 -174.5 34.5t-113 99t-58 144t-17.5 181.5zM299 252q0 -61 5 -104.5t17.5 -82t38.5 -58t64 -19.5q39 0 65.5 19.5t40 58t18.5 82t5 104.5q0 60 -5 103t-18.5 81.5 t-40 58t-65.5 19.5q-38 0 -64 -19.5t-38.5 -58t-17.5 -81.5t-5 -103z" />
<glyph unicode="&#x2081;" horiz-adv-x="716" d="M47 580q213 37 297 110h176v-680h174v-200h-616v200h207v430q-86 -26 -207 -39z" />
<glyph unicode="&#x2082;" horiz-adv-x="833" d="M35 487q139 220 366 220q153 0 248.5 -78.5t95.5 -214.5q0 -100 -68.5 -192.5t-227.5 -203.5h327v-208h-708v170q248 174 337 261t89 160q0 45 -32.5 72t-80.5 27q-47 0 -88 -29t-68 -84z" />
<glyph unicode="&#x2083;" horiz-adv-x="837" d="M33 39l198 61q50 -102 191 -102q54 0 85.5 23t31.5 61q0 35 -31 54.5t-82 19.5h-115v194h111q36 0 66 19.5t30 54.5q0 38 -31.5 58t-76.5 20q-123 0 -181 -96l-182 81q127 220 375 220q140 0 236 -68t96 -193q0 -117 -95 -176q62 -26 92.5 -80t30.5 -116 q0 -122 -98.5 -201.5t-263.5 -79.5q-286 0 -387 246z" />
<glyph unicode="&#x2084;" horiz-adv-x="833" d="M33 -18v168q69 126 112.5 274.5t44.5 265.5h232q-3 -232 -152 -514h191v303h223v-303h117v-194h-117v-172h-227v172h-424z" />
<glyph unicode="&#x2085;" horiz-adv-x="817" d="M35 -37l168 115q69 -80 190 -80q54 0 93.5 30.5t39.5 82.5t-37.5 82t-105.5 30q-94 0 -158 -73l-137 53l31 487h600v-213h-410q-3 -49 -20 -133q64 45 162 45q141 0 229 -75t88 -216q0 -55 -22.5 -107.5t-65.5 -97.5t-116 -72.5t-165 -27.5q-223 0 -364 170z" />
<glyph unicode="&#x2086;" horiz-adv-x="821" d="M53 143q0 287 279 547h332q-120 -81 -192 -149.5t-114 -147.5q50 37 129 37q133 0 217 -83t84 -222q0 -148 -101 -240t-265 -92q-171 0 -270 91t-99 259zM295 121q0 -60 33 -96.5t94 -36.5q60 0 92.5 36.5t32.5 98.5q0 63 -32.5 99t-92.5 36q-61 0 -94 -37.5t-33 -99.5z " />
<glyph unicode="&#x2087;" horiz-adv-x="753" d="M27 477v213h718v-160q-337 -404 -327 -720h-264q1 81 22 165t50.5 150t73.5 137t78 116.5t77 98.5h-428z" />
<glyph unicode="&#x2088;" horiz-adv-x="847" d="M55 63q0 65 30.5 120.5t94.5 88.5q-96 62 -96 181q0 122 90 188t250 66q162 0 251 -66t89 -188q0 -115 -100 -179q129 -64 129 -211q0 -128 -98.5 -199t-270.5 -71t-270.5 71t-98.5 199zM291 76q0 -55 38 -83t95 -28t95 27.5t38 81.5q0 57 -38 85.5t-95 28.5t-95 -28.5 t-38 -83.5zM317 444q0 -49 30.5 -72.5t74.5 -23.5q46 0 77 23.5t31 72.5q0 44 -31 66t-75 22q-45 0 -76 -22t-31 -66z" />
<glyph unicode="&#x2089;" horiz-adv-x="823" d="M33 373q0 149 101.5 241.5t264.5 92.5q171 0 271 -92.5t100 -260.5q0 -289 -281 -544h-329q119 80 190.5 147t112.5 147q-49 -34 -127 -34q-134 0 -218.5 82.5t-84.5 220.5zM274 375q0 -62 32 -97.5t93 -35.5t95 37.5t34 97.5q0 61 -33.5 97t-95.5 36q-60 0 -92.5 -36 t-32.5 -99z" />
<glyph unicode="&#x20ac;" horiz-adv-x="1540" d="M78 483v138h135q-4 28 -4 63q0 31 4 55h-135v133h151q53 238 226.5 377.5t421.5 139.5q185 0 335.5 -82.5t249.5 -257.5l-250 -150q-116 207 -323 207q-113 0 -197.5 -63.5t-122.5 -170.5h400v-133h-426q-4 -24 -4 -53q0 -37 4 -65h426v-138h-394q37 -104 121 -164.5 t193 -60.5t184.5 56t134.5 169l262 -141q-93 -176 -241.5 -271.5t-349.5 -95.5q-247 0 -420.5 137t-227.5 371h-153z" />
<glyph unicode="&#x2113;" horiz-adv-x="1136" d="M63 522q113 39 226 94v340q0 90 19 165t59 136.5t111.5 96.5t168.5 35q162 0 252 -95t90 -245q0 -323 -436 -553v-140q0 -137 131 -137q115 0 207 123l172 -166q-152 -201 -408 -201q-180 0 -273 94t-93 275v29q-16 -6 -47.5 -19.5t-56 -23t-46.5 -15.5zM553 768 q94 69 140 144.5t46 142.5q0 54 -23.5 83t-66.5 29q-96 0 -96 -145v-254z" />
<glyph unicode="&#x2116;" horiz-adv-x="2576" d="M53 66l123 149q33 -33 76 -33q24 0 42.5 10t31 25.5t21.5 43.5t14 56t7.5 71t3.5 80t1 91v805h248l485 -895q-21 315 -21 436q0 236 70 344q93 140 262 140q145 0 225 -93l-122 -149q-27 35 -76 35q-24 0 -42.5 -10t-31 -25.5t-21.5 -43.5t-14 -56t-7.5 -71t-3.5 -80 t-1 -91v-805h-248l-483 895q18 -292 18 -436q0 -240 -69 -344q-90 -140 -262 -140q-142 0 -226 91zM1550 690q0 200 131 328.5t324 128.5q192 0 324.5 -129t132.5 -328q0 -133 -61.5 -238t-165.5 -162t-230 -57q-193 0 -324 128t-131 329zM1575 0v143h860v-143h-860z M1786 690q0 -111 59.5 -181.5t159.5 -70.5q99 0 158 70.5t59 181.5q0 110 -59 181t-158 71t-159 -71.5t-60 -180.5z" />
<glyph unicode="&#x2117;" horiz-adv-x="1589" d="M76 682q0 117 36.5 227t103 198t155 154.5t198 103t226.5 36.5q146 0 278.5 -57t229 -153t153.5 -229.5t57 -279.5q0 -145 -57 -278.5t-153.5 -230t-229.5 -153.5t-278 -57q-116 0 -226 36.5t-198.5 103t-155 155t-103 198.5t-36.5 226zM223 682q0 -116 45.5 -222 t122 -182t182.5 -121.5t222 -45.5q155 0 287 76.5t209 208t77 286.5q0 156 -77 287.5t-209 207.5t-287 76q-115 0 -221 -45t-183 -121t-122.5 -182t-45.5 -223zM498 285v798h379q153 0 232 -79t79 -201q0 -121 -79.5 -199t-238.5 -78h-135v-241h-237zM735 696h99 q116 0 116 105q0 106 -116 106h-99v-211z" />
<glyph unicode="&#x2122;" horiz-adv-x="1540" d="M90 1210v154h551v-154h-197v-462h-161v462h-193zM725 748v616h217l133 -424l133 424h215v-616h-153v426l-137 -426h-115l-139 426v-426h-154z" />
<glyph unicode="&#x212e;" horiz-adv-x="1249" d="M86 559q0 122 39 229.5t108.5 186t172.5 123.5t225 45q243 0 394 -163t153 -421h-854v-383q128 -125 307 -125q133 0 231.5 60.5t175.5 193.5l74 -45q-98 -153 -207.5 -219t-273.5 -66q-162 0 -287.5 78t-191.5 210.5t-66 295.5zM324 635h616v307q-136 127 -311 127 t-305 -127v-307z" />
<glyph unicode="&#x2139;" horiz-adv-x="1880" d="M82 682q0 174 68 333t183 274t274 183t333 68t333 -68t274 -183t183 -274t68 -333t-68 -333t-183 -274t-274 -183t-333 -68t-333 68t-274 183t-183 274t-68 333zM678 303q0 -111 72.5 -172t197.5 -61q151 0 289 77l-39 84q-69 -38 -139 -38q-66 0 -106 34.5t-40 104.5 q0 59 33 172l107 356h-250l-70 -270q-55 -211 -55 -287zM836 985h194q69 0 117.5 49t48.5 121q0 71 -47 117.5t-123 46.5q-145 0 -168 -184q-11 -96 -22 -150z" />
<glyph unicode="&#x2153;" horiz-adv-x="2111" d="M96 1255q211 34 297 109h176v-680h174v-201h-616v201h207v430q-107 -28 -207 -39zM477 0l920 1364h231l-919 -1364h-232zM1278 229l199 62q50 -103 190 -103q54 0 85.5 23t31.5 61q0 35 -31 54.5t-82 19.5h-117v195h113q36 0 66 19t30 54q0 37 -32 57.5t-76 20.5 q-125 0 -180 -96l-183 82q65 113 157 166t216 53q141 0 237.5 -67.5t96.5 -192.5q0 -118 -94 -176q61 -26 90.5 -80.5t29.5 -116.5q0 -121 -98 -200.5t-262 -79.5q-287 0 -387 245z" />
<glyph unicode="&#x2154;" horiz-adv-x="2111" d="M68 1163q137 217 366 217q154 0 249 -77.5t95 -212.5q0 -99 -68.5 -192t-228.5 -204h328v-211h-709v170q248 174 337 262t89 162q0 43 -32 70t-80 27q-100 0 -156 -111zM504 0l919 1364h232l-920 -1364h-231zM1305 229l198 62q50 -103 191 -103q54 0 85 23t31 61 q0 35 -31 54.5t-81 19.5h-117v195h113q36 0 66 19t30 54q0 37 -32.5 57.5t-76.5 20.5q-125 0 -180 -96l-182 82q65 113 157 166t216 53q141 0 237 -67.5t96 -192.5q0 -118 -94 -176q61 -26 91 -80.5t30 -116.5q0 -121 -98 -200.5t-262 -79.5q-287 0 -387 245z" />
<glyph unicode="&#x2155;" horiz-adv-x="2111" d="M92 1255q211 34 297 109h176v-680h174v-201h-616v201h207v430q-107 -28 -207 -39zM473 0l920 1364h231l-919 -1364h-232zM1292 154l168 114q69 -80 191 -80q54 0 93.5 30.5t39.5 82.5t-38 82.5t-106 30.5q-92 0 -157 -74l-137 53l30 488h600v-213h-409q-2 -42 -21 -133 q64 45 162 45q141 0 229 -75t88 -216q0 -55 -22 -107.5t-65 -97.5t-116 -72.5t-165 -27.5q-224 0 -365 170z" />
<glyph unicode="&#x2156;" horiz-adv-x="2111" d="M63 1163q63 101 156 159t211 58q154 0 249 -77.5t95 -212.5q0 -99 -68.5 -192t-228.5 -204h328v-211h-709v170q248 174 337 262t89 162q0 43 -32 70t-80 27q-100 0 -156 -111zM500 0l919 1364h232l-920 -1364h-231zM1319 154l168 114q69 -80 190 -80q54 0 93.5 30.5 t39.5 82.5t-37.5 82.5t-105.5 30.5q-93 0 -158 -74l-137 53l31 488h600v-213h-410q-3 -49 -20 -133q64 45 162 45q141 0 229 -75t88 -216q0 -55 -22.5 -107.5t-65.5 -97.5t-116 -72.5t-165 -27.5q-223 0 -364 170z" />
<glyph unicode="&#x2157;" horiz-adv-x="2111" d="M59 713l199 61q51 -102 191 -102q53 0 84.5 23.5t31.5 60.5q0 36 -30.5 55.5t-81.5 19.5h-117v193h113q36 0 66 20t30 56q0 37 -32.5 56.5t-76.5 19.5q-126 0 -180 -95l-182 82q127 217 372 217q142 0 238 -66.5t96 -191.5q0 -117 -94 -178q61 -26 91 -79t30 -115 q0 -122 -98.5 -202.5t-262.5 -80.5q-286 0 -387 246zM494 0l919 1364h232l-920 -1364h-231zM1313 154l168 114q69 -80 190 -80q54 0 93.5 30.5t39.5 82.5t-37.5 82.5t-105.5 30.5q-93 0 -158 -74l-137 53l31 488h600v-213h-410q-3 -49 -20 -133q64 45 162 45q141 0 229 -75 t88 -216q0 -55 -22.5 -107.5t-65.5 -97.5t-116 -72.5t-165 -27.5q-223 0 -364 170z" />
<glyph unicode="&#x2158;" horiz-adv-x="2111" d="M53 657v166q69 126 113 275t45 266h231q-3 -236 -151 -512h190v301h224v-301h116v-195h-116v-174h-228v174h-424zM496 0l919 1364h232l-920 -1364h-231zM1315 154l168 114q69 -80 190 -80q54 0 93.5 30.5t39.5 82.5t-37.5 82.5t-105.5 30.5q-93 0 -158 -74l-137 53 l31 488h600v-213h-410q-3 -49 -20 -133q64 45 162 45q141 0 229 -75t88 -216q0 -55 -22.5 -107.5t-65.5 -97.5t-116 -72.5t-165 -27.5q-223 0 -364 170z" />
<glyph unicode="&#x2159;" horiz-adv-x="2111" d="M111 1255q211 34 297 109h176v-680h174v-201h-617v201h207v430q-107 -28 -207 -39zM492 0l919 1364h231l-919 -1364h-231zM1284 334q0 289 281 547h329q-118 -80 -189 -148.5t-114 -148.5q47 37 127 37q132 0 216.5 -83.5t84.5 -222.5q0 -148 -100.5 -239.5t-263.5 -91.5 q-172 0 -271.5 91t-99.5 259zM1526 311q0 -60 33.5 -96.5t95.5 -36.5q59 0 92 37t33 98q0 62 -33 99t-92 37q-61 0 -95 -38t-34 -100z" />
<glyph unicode="&#x215a;" horiz-adv-x="2111" d="M78 637l168 117q70 -82 190 -82q54 0 93.5 30.5t39.5 83.5q0 51 -37.5 82t-105.5 31q-93 0 -158 -74l-137 54l31 485h600v-211h-410q-3 -49 -20 -133q64 45 162 45q141 0 229 -75.5t88 -215.5q0 -55 -22.5 -108t-65.5 -98t-116 -73t-165 -28q-223 0 -364 170zM512 0 l920 1364h231l-920 -1364h-231zM1305 334q0 290 280 547h330q-118 -80 -189 -148.5t-114 -148.5q47 37 127 37q132 0 216.5 -83.5t84.5 -222.5q0 -148 -101 -239.5t-264 -91.5q-172 0 -271 91t-99 259zM1546 311q0 -60 33.5 -96.5t95.5 -36.5q59 0 92 37t33 98q0 62 -33 99 t-92 37q-61 0 -95 -38t-34 -100z" />
<glyph unicode="&#x215b;" horiz-adv-x="2111" d="M96 1255q211 34 297 109h176v-680h174v-201h-616v201h207v430q-107 -28 -207 -39zM477 0l920 1364h231l-919 -1364h-232zM1286 254q0 65 30.5 120.5t94.5 88.5q-96 62 -96 180q0 122 90 188t250 66q162 0 251 -66t89 -188q0 -114 -101 -178q129 -65 129 -211 q0 -128 -98 -199t-270 -71t-270.5 71t-98.5 199zM1522 266q0 -55 38 -82.5t95 -27.5t95 27t38 81q0 57 -38 86t-95 29t-95 -29t-38 -84zM1548 635q0 -49 30.5 -72.5t74.5 -23.5q46 0 77 23.5t31 72.5q0 44 -31 66t-75 22q-45 0 -76 -22t-31 -66z" />
<glyph unicode="&#x215c;" horiz-adv-x="2111" d="M66 713l198 61q51 -102 191 -102q53 0 84.5 23.5t31.5 60.5q0 36 -30.5 55.5t-81.5 19.5h-117v193h113q36 0 66 20t30 56q0 37 -32.5 56.5t-76.5 19.5q-126 0 -180 -95l-182 82q127 217 373 217q142 0 237.5 -66.5t95.5 -191.5q0 -117 -94 -178q61 -26 91 -79t30 -115 q0 -122 -98.5 -202.5t-261.5 -80.5q-286 0 -387 246zM500 0l919 1364h232l-920 -1364h-231zM1309 254q0 65 30.5 120.5t94.5 88.5q-97 63 -97 180q0 122 90 188t250 66q162 0 251 -66t89 -188q0 -114 -100 -178q129 -65 129 -211q0 -128 -98.5 -199t-270.5 -71t-270 71 t-98 199zM1544 266q0 -55 38 -82.5t95 -27.5t95 27t38 81q0 57 -38 86t-95 29t-95 -29t-38 -84zM1571 635q0 -49 30 -72.5t74 -23.5q46 0 77.5 23.5t31.5 72.5q0 44 -31.5 66t-75.5 22q-45 0 -75.5 -22t-30.5 -66z" />
<glyph unicode="&#x215d;" horiz-adv-x="2111" d="M70 637l166 117q70 -82 190 -82q56 0 94.5 30.5t38.5 83.5q0 51 -37.5 82t-103.5 31q-96 0 -158 -74l-139 54l31 485h600v-211h-408q-1 -12 -20 -133q64 45 159 45q141 0 229.5 -75.5t88.5 -215.5q0 -55 -22 -108t-65 -98t-116 -73t-166 -28q-224 0 -362 170zM492 0 l919 1364h231l-919 -1364h-231zM1300 254q0 65 30.5 120.5t94.5 88.5q-96 62 -96 180q0 122 90 188t250 66q162 0 251 -66t89 -188q0 -114 -100 -178q129 -65 129 -211q0 -128 -98.5 -199t-270.5 -71t-270.5 71t-98.5 199zM1536 266q0 -55 38 -82.5t95 -27.5t95 27t38 81 q0 57 -38 86t-95 29t-95 -29t-38 -84zM1563 635q0 -49 30 -72.5t74 -23.5q46 0 77.5 23.5t31.5 72.5q0 44 -31.5 66t-75.5 22q-45 0 -75.5 -22t-30.5 -66z" />
<glyph unicode="&#x215e;" horiz-adv-x="2111" d="M109 1153v211h716v-160q-337 -404 -327 -721h-265q2 81 23 165t50.5 151t73 138t78 117.5t77.5 98.5h-426zM449 0l919 1364h231l-919 -1364h-231zM1257 254q0 65 30.5 120.5t94.5 88.5q-96 62 -96 180q0 122 90 188t250 66q162 0 251 -66t89 -188q0 -114 -100 -178 q129 -65 129 -211q0 -128 -98.5 -199t-270.5 -71t-270.5 71t-98.5 199zM1493 266q0 -55 38 -82.5t95 -27.5t95 27t38 81q0 57 -38 86t-95 29t-95 -29t-38 -84zM1520 635q0 -49 30 -72.5t74 -23.5q46 0 77.5 23.5t31.5 72.5q0 44 -31.5 66t-75.5 22q-45 0 -75.5 -22 t-30.5 -66z" />
<glyph unicode="&#x2190;" horiz-adv-x="1880" d="M180 682l701 702l174 -174l-400 -401h1018v-256h-1018l400 -399l-174 -174z" />
<glyph unicode="&#x2191;" horiz-adv-x="1880" d="M227 782l713 711l713 -711l-174 -176l-412 410v-1016h-256v1016l-410 -410z" />
<glyph unicode="&#x2192;" horiz-adv-x="1880" d="M207 553v256h1016l-400 401l176 174l701 -702l-701 -702l-176 174l400 399h-1016z" />
<glyph unicode="&#x2193;" horiz-adv-x="1880" d="M227 680l174 174l410 -410v1018h256v-1018l412 410l174 -174l-713 -711z" />
<glyph unicode="&#x2196;" horiz-adv-x="1880" d="M389 225v1008h1008v-246h-582l721 -719l-182 -182l-721 721v-582h-244z" />
<glyph unicode="&#x2197;" horiz-adv-x="1880" d="M344 268l721 719h-582v246h1008v-1008h-246v582l-719 -721z" />
<glyph unicode="&#x2198;" horiz-adv-x="1880" d="M344 1096l182 182l719 -721v582h246v-1008h-1008v246h582z" />
<glyph unicode="&#x2199;" horiz-adv-x="1880" d="M389 131v1008h244v-582l721 721l182 -182l-721 -719h582v-246h-1008z" />
<glyph unicode="&#x2202;" horiz-adv-x="1306" d="M70 510q0 106 35.5 200.5t99 165t157.5 111.5t205 41q147 0 256 -80q-128 221 -467 383l262 156q271 -133 436 -368.5t165 -522.5q0 -286 -153 -453.5t-427 -167.5q-253 0 -411 144t-158 391zM401 500q0 -118 64.5 -191t183.5 -73q121 0 188.5 74t67.5 190 q0 117 -69 193.5t-187 76.5q-119 0 -183.5 -75.5t-64.5 -194.5z" />
<glyph unicode="&#x220f;" horiz-adv-x="1253" d="M78 1163v201h1098v-201h-144v-1163h-198v1163h-414v-1163h-199v1163h-143z" />
<glyph unicode="&#x2211;" horiz-adv-x="1198" d="M70 0v49l573 633l-573 633v49h1030v-201h-629l438 -481l-438 -483h629v-199h-1030z" />
<glyph unicode="&#x2212;" d="M82 492v260h1063v-260h-1063z" />
<glyph unicode="&#x2217;" horiz-adv-x="1179" d="M68 449q0 61 55 92q22 13 53 22t77.5 19t74.5 18q91 25 202 82q-106 56 -202 82q-28 8 -74 18t-77.5 19t-53.5 22q-55 30 -55 92q0 31 16 60q36 55 94 55q30 0 55 -14q20 -11 41 -30.5t56 -57.5t57 -60q74 -74 172 -135q-3 109 -29 217q-7 26 -21 71.5t-22 77t-8 56.5 q0 50 31.5 80.5t79.5 30.5t79 -30.5t31 -80.5q0 -25 -8 -56.5t-22 -77t-21 -71.5q-25 -99 -31 -217q101 61 175 135q19 19 53 56t56.5 58.5t43.5 33.5q25 14 55 14q59 0 95 -55q16 -29 16 -60q0 -62 -55 -92q-22 -13 -54 -22.5t-80 -20t-71 -16.5q-94 -25 -205 -82 q119 -61 205 -82q34 -9 83 -20t75.5 -19t46.5 -20q55 -31 55 -92q0 -31 -16 -60q-36 -55 -95 -55q-30 0 -55 14q-20 11 -41 31t-55.5 57.5t-56.5 59.5q-66 66 -175 135q6 -112 31 -217q8 -30 23 -77.5t21.5 -74.5t6.5 -51q0 -52 -31 -82.5t-79 -30.5t-79.5 31t-31.5 82 q0 24 6.5 51t21.5 74.5t23 77.5q26 103 29 217q-109 -72 -172 -135q-18 -18 -53 -56t-58 -59.5t-43 -32.5q-25 -14 -55 -14q-58 0 -94 55q-16 29 -16 60z" />
<glyph unicode="&#x221a;" horiz-adv-x="1171" d="M14 647l179 90l219 -432l602 1211l178 -89l-766 -1538h-25z" />
<glyph unicode="&#x221e;" horiz-adv-x="1624" d="M84 563q0 150 105 254.5t255 104.5q149 0 250 -101l119 -119l117 119q101 101 250 101q150 0 255 -104.5t105 -254.5t-105 -255t-255 -105q-148 0 -250 102l-117 119l-119 -119q-102 -102 -250 -102q-150 0 -255 105t-105 255zM287 563q0 -66 45.5 -111.5t111.5 -45.5 q34 0 69 18t55 36t55.5 55.5t48.5 49.5l-111 109q-50 47 -117 47q-66 0 -111.5 -46.5t-45.5 -111.5zM954 563l111 -108q46 -49 115 -49q66 0 112.5 45.5t46.5 111.5q0 65 -46.5 111.5t-112.5 46.5q-34 0 -69 -18.5t-54.5 -35.5t-56 -55.5t-46.5 -48.5z" />
<glyph unicode="&#x222b;" horiz-adv-x="673" d="M33 -176l98 125q33 -33 74 -33q82 0 82 100q0 65 -56 594q-51 475 -51 623q0 121 66 186.5t182 65.5q130 0 217 -80l-96 -127q-35 35 -76 35q-82 0 -82 -101q0 -75 55 -594q52 -484 52 -622q0 -120 -65.5 -186t-180.5 -66q-128 0 -219 80z" />
<glyph unicode="&#x2248;" d="M74 399q148 199 311 199q38 0 80.5 -10.5t67 -20t96.5 -39.5q149 -63 215 -63q112 0 227 92l84 -102q-147 -203 -311 -203q-39 0 -81 10.5t-67.5 21t-95.5 40.5q-141 63 -215 63q-113 0 -227 -94zM74 797q147 198 311 198q38 0 79.5 -10t69 -20.5t95.5 -38.5 q58 -25 86.5 -36t64.5 -20.5t64 -9.5q110 0 227 94l84 -104q-150 -201 -311 -201q-39 0 -81 10.5t-67.5 21t-95.5 40.5q-149 63 -215 63q-109 0 -227 -94z" />
<glyph unicode="&#x2260;" d="M70 272v215h419l54 156h-473v217h544l99 295h194l-98 -295h348v-217h-420l-53 -156h473v-215h-545l-96 -292h-194l98 292h-350z" />
<glyph unicode="&#x2264;" d="M80 0v238h1063v-238h-1063zM90 842l905 532l115 -231l-561 -301l561 -301l-115 -232z" />
<glyph unicode="&#x2265;" d="M84 0v238h1063v-238h-1063zM117 541l561 301l-561 301l116 231l906 -532l-906 -533z" />
<glyph unicode="&#x229b;" horiz-adv-x="1880" d="M82 682q0 174 68 333t183 274t274 183t333 68t333 -68t274 -183t183 -274t68 -333t-68 -333t-183 -274t-274 -183t-333 -68t-333 68t-274 183t-183 274t-68 333zM184 682q0 -153 60 -293t161.5 -241.5t241.5 -161.5t293 -60t293 60t241.5 161.5t161.5 241.5t60 293 t-60 293t-161.5 241.5t-241.5 161.5t-293 60t-293 -60t-241.5 -161.5t-161.5 -241.5t-60 -293zM418 449q0 61 55 92q22 13 53 22t77.5 19t74.5 18q93 25 203 82q-105 55 -203 82q-28 8 -74 18t-77.5 19t-53.5 22q-55 30 -55 92q0 31 16 60q36 55 94 55q31 0 56 -14 q20 -11 41 -31t55.5 -57.5t56.5 -59.5q74 -74 172 -135q-3 114 -28 217q-7 27 -21.5 72t-22.5 77t-8 56q0 50 31.5 80.5t79.5 30.5t79.5 -30.5t31.5 -80.5q0 -24 -8 -56t-22.5 -77t-21.5 -72q-24 -94 -30 -217q98 59 174 135q19 19 53 56t56.5 58.5t43.5 33.5q25 14 56 14 q58 0 94 -55q16 -29 16 -60q0 -62 -55 -92q-22 -13 -54 -22.5t-80 -20t-71 -16.5q-94 -25 -205 -82q119 -61 205 -82q34 -9 83 -20t75.5 -19t46.5 -20q55 -31 55 -92q0 -31 -16 -60q-36 -55 -94 -55q-31 0 -56 14q-20 11 -41 31t-55.5 57.5t-56.5 59.5q-68 68 -174 135 q6 -117 30 -217q8 -31 23 -77.5t22 -74t7 -51.5q0 -51 -31.5 -82t-79.5 -31t-79.5 31t-31.5 82q0 24 7 51.5t22 74t23 77.5q25 99 28 217q-109 -72 -172 -135q-18 -18 -52.5 -55.5t-57.5 -59.5t-43 -33q-25 -14 -56 -14q-58 0 -94 55q-16 29 -16 60z" />
<glyph unicode="&#x25a0;" horiz-adv-x="1568" d="M102 0v1364h1364v-1364h-1364z" />
<glyph unicode="&#x25a1;" horiz-adv-x="1568" d="M102 0v1364h1364v-1364h-1364zM205 102h1159v1160h-1159v-1160z" />
<glyph unicode="&#x25b2;" horiz-adv-x="1089" d="M66 0l479 1475l479 -1475h-958z" />
<glyph unicode="&#x25b6;" horiz-adv-x="960" d="M143 -41v1446l723 -723z" />
<glyph unicode="&#x25b7;" horiz-adv-x="960" d="M143 -41v1446l723 -723zM233 176l506 506l-506 506v-1012z" />
<glyph unicode="&#x25ba;" horiz-adv-x="1699" d="M143 203v958l1475 -479z" />
<glyph unicode="&#x25bb;" horiz-adv-x="1699" d="M143 203v958l1475 -479zM225 315l1131 367l-1131 367v-734z" />
<glyph unicode="&#x25bc;" horiz-adv-x="1089" d="M66 1364h958l-479 -1475z" />
<glyph unicode="&#x25c0;" horiz-adv-x="960" d="M94 682l723 723v-1446z" />
<glyph unicode="&#x25c1;" horiz-adv-x="960" d="M94 682l723 723v-1446zM221 682l506 -506v1012z" />
<glyph unicode="&#x25c4;" horiz-adv-x="1699" d="M82 682l1474 479v-958z" />
<glyph unicode="&#x25c5;" horiz-adv-x="1699" d="M82 682l1474 479v-958zM344 682l1131 -367v734z" />
<glyph unicode="&#x25ca;" horiz-adv-x="1234" d="M57 682l545 780h25l544 -780l-544 -780h-25zM301 682l313 -451l314 451l-314 448z" />
<glyph unicode="&#x25cb;" horiz-adv-x="1568" d="M61 682q0 196 97 362.5t263.5 263.5t362.5 97t362.5 -97t263.5 -263.5t97 -362.5t-97 -362.5t-263.5 -263.5t-362.5 -97t-362.5 97t-263.5 263.5t-97 362.5zM164 682q0 -168 83 -311t226 -226.5t311 -83.5t311 83.5t226.5 226.5t83.5 311t-83.5 311t-226.5 226.5 t-311 83.5t-311 -83.5t-226 -226.5t-83 -311z" />
<glyph unicode="&#x25cf;" horiz-adv-x="1568" d="M61 682q0 196 97 362.5t263.5 263.5t362.5 97t362.5 -97t263.5 -263.5t97 -362.5t-97 -362.5t-263.5 -263.5t-362.5 -97t-362.5 97t-263.5 263.5t-97 362.5z" />
<glyph unicode="&#x25fc;" horiz-adv-x="1095" d="M0 0v1096h1096v-1096h-1096z" />
<glyph unicode="&#x2605;" horiz-adv-x="1732" d="M66 889h610l190 581l191 -581h610l-493 -359l188 -583l-496 358l-495 -358l188 583z" />
<glyph unicode="&#x2606;" horiz-adv-x="1732" d="M66 889h610l190 581l191 -581h610l-493 -359l188 -583l-496 358l-495 -358l188 583zM866 346l434 -315l-165 512l432 313h-533l-168 514v-1024z" />
<glyph unicode="&#x271a;" horiz-adv-x="1568" d="M102 455v454h455v455h455v-455h454v-454h-454v-455h-455v455h-455z" />
<glyph unicode="&#x2765;" horiz-adv-x="1130" d="M0 672v20q115 0 276 316q4 7 17 34t17 34.5t15.5 30.5t16 31t15 27t16.5 27.5t15.5 24t17.5 25t18 21t20 21.5q105 105 250 105q146 0 250.5 -104.5t104.5 -250.5t-104 -248t-251 -102v-4q147 0 251 -102t104 -248t-104.5 -250.5t-250.5 -104.5q-145 0 -250 105 q-31 31 -62 79.5t-47 79t-59 117.5q-161 316 -276 316z" />
<glyph unicode="&#x3008;" horiz-adv-x="669" d="M12 674v16l389 770l232 -114l-336 -664l336 -664l-232 -114z" />
<glyph unicode="&#x3009;" horiz-adv-x="667" d="M37 18l336 664l-336 664l229 114l389 -770v-16l-389 -770z" />
<glyph unicode="&#x300a;" horiz-adv-x="1132" d="M12 674v16l389 770l232 -114l-336 -664l336 -664l-232 -114zM477 674v16l389 770l230 -114l-336 -664l336 -664l-230 -114z" />
<glyph unicode="&#x300b;" horiz-adv-x="1132" d="M37 18l336 664l-336 664l231 114l389 -770v-16l-389 -770zM502 18l336 664l-336 664l229 114l389 -770v-16l-389 -770z" />
<glyph unicode="&#xfb06;" horiz-adv-x="2035" d="M35 242l213 141q58 -84 155.5 -125t204.5 -41q84 0 129 24.5t45 67.5q0 18 -6.5 32t-23 24.5t-33 18t-48 14t-55.5 10.5t-67 10q-108 16 -186 39.5t-140.5 62.5t-93.5 99.5t-31 142.5q0 117 64 199.5t166 119.5t231 37q121 0 227 -37q14 188 145 296t357 108 q78 0 141.5 -13.5t115 -43.5t80 -82.5t28.5 -124.5v-127h311v-238h-311v-494q0 -114 112 -114q72 0 136 49l116 -225q-134 -97 -309 -97q-189 0 -279 101.5t-90 312.5v467h-174v238h174v86q0 106 -127 106q-104 0 -159.5 -70.5t-55.5 -171.5q0 -106 54 -196l-193 -103 q-44 62 -120.5 98t-172.5 36q-75 0 -120.5 -22.5t-45.5 -61.5q0 -11 4 -21t13 -17.5t18.5 -13.5t26 -11.5t29.5 -9t35 -7.5t36.5 -6.5t40 -6.5t39.5 -6q105 -17 180.5 -41t139.5 -63.5t96.5 -100.5t32.5 -143q0 -171 -135.5 -272t-366.5 -101q-183 0 -326.5 67t-226.5 200z " />
<glyph unicode="&#x1f4d5;" horiz-adv-x="1794" d="M123 1108q0 158 78.5 292.5t213 213t292.5 78.5v-82q-136 0 -251.5 -67.5t-183 -183t-67.5 -251.5h-82zM287 1108q0 173 123.5 296.5t296.5 123.5v-82q-139 0 -238.5 -99t-99.5 -239h-82zM451 74v1034q0 106 75 181t181 75h927v-1462h-1011q-71 0 -121.5 51t-50.5 121z M532 74q0 -37 27 -63.5t64 -26.5h938q-25 42 -25 90t25 90h-938q-37 0 -64 -26.5t-27 -63.5zM686 762q0 -159 97.5 -259t271.5 -100q189 0 331 129l-129 117q-86 -80 -188 -80q-74 0 -121 39.5t-51 108.5h498q2 14 2 49q0 164 -92 260t-258 96q-165 0 -263 -101t-98 -259z M899 840q4 64 45.5 99.5t106.5 35.5t105 -34.5t46 -100.5h-303z" />
<glyph unicode="&#x1f4d6;" horiz-adv-x="1880" d="M160 164v1036q0 109 76.5 185.5t185.5 76.5h1036q109 0 185.5 -76.5t76.5 -185.5v-1036q0 -109 -76.5 -185.5t-185.5 -76.5h-1036q-109 0 -185.5 76.5t-76.5 185.5zM422 426q95 0 176.5 -20t135.5 -51t92.5 -68t55.5 -70.5t17 -60.5h21v700q0 34 -30.5 78t-88 88t-158 74 t-221.5 30v-700zM961 156h20q0 27 17 60.5t55.5 70.5t92.5 68t135.5 51t176.5 20v700q-98 0 -183 -20t-141 -51t-96.5 -68t-58.5 -70.5t-18 -60.5v-700z" />
<glyph unicode="&#x1f50c;" horiz-adv-x="1880" d="M82 682q0 174 68 333t183 274t274 183t333 68q211 0 395.5 -96.5t304 -264t148.5 -372.5h-250q-43 211 -210 350t-388 139q-62 0 -117 -12v-237h-346v-240h346v-250h-346v-240h346v-239q62 -10 117 -10q221 0 388 138t210 351h250q-29 -205 -148.5 -372.5t-304 -264 t-395.5 -96.5q-174 0 -333 68t-274 183t-183 274t-68 333z" />
<glyph unicode="&#x1f697;" horiz-adv-x="2605" d="M102 528q0 176 51 329.5t143 267.5t216 195.5t273 123t311 41.5q311 0 528 -152t301 -432q132 -15 240 -52t188.5 -95t125 -141.5t44.5 -184.5q0 -120 -57.5 -194t-153.5 -74h-31q-27 -86 -98 -139.5t-162 -53.5q-90 0 -162 54t-98 139h-897q-27 -86 -98 -139.5 t-162 -53.5q-90 0 -162 54t-98 139q-128 0 -185 95t-57 273zM469 950q0 -63 83.5 -84.5t274.5 -21.5h537q191 0 274.5 21.5t83.5 84.5q0 36 -20 72q-76 147 -244 233t-362 86t-362.5 -86t-244.5 -233q-20 -36 -20 -72z" />
<glyph unicode="&#x1f698;" horiz-adv-x="1970" d="M119 578q0 215 65 388t181 286t274.5 173t345.5 60t345.5 -60t274.5 -173t181 -286t65 -388q0 -90 -12 -161t-34.5 -119.5t-43.5 -78t-51 -59.5v-64q0 -69 -40.5 -95t-131.5 -26t-132.5 26t-41.5 95v64h-758v-64q0 -69 -41.5 -95t-132.5 -26t-131.5 26t-40.5 95v64 q-30 30 -51 59.5t-43.5 78t-34.5 119.5t-12 161zM315 541q0 -61 43.5 -104.5t104.5 -43.5t104 43t43 105q0 61 -43 104t-104 43q-62 0 -105 -43t-43 -104zM358 950q0 -63 84 -84.5t275 -21.5h536q191 0 275 21.5t84 84.5q0 34 -21 72q-76 147 -244 233t-362 86t-362 -86 t-244 -233q-21 -38 -21 -72zM1360 541q0 -62 43 -105t104 -43t104.5 43.5t43.5 104.5t-43 104t-105 43q-61 0 -104 -43t-43 -104z" />
<glyph horiz-adv-x="1138" d="M16 268l269 146q67 -152 209 -152q89 0 135.5 53t46.5 152v604h-357v293h685v-889q0 -243 -135 -371.5t-365 -128.5q-170 0 -295 73t-193 220z" />
<glyph horiz-adv-x="1533" d="M70 682q0 147 48 276t136 225t220 151t292 55q128 0 239.5 -35.5t195.5 -100t144 -152.5t90.5 -194.5t30.5 -224.5q0 -296 -182 -494l156 -168l-232 -190l-159 197q-132 -52 -283 -52q-212 0 -372 95t-242 254t-82 358zM408 682q0 -177 94.5 -292.5t263.5 -115.5 t264.5 115.5t95.5 292.5q0 176 -95.5 292t-264.5 116q-113 0 -195.5 -55.5t-122.5 -147t-40 -205.5z" />
<glyph horiz-adv-x="1390" d="M68 547q0 249 135.5 410t361.5 161q203 0 334 -149v125h315v-824q0 -36 13.5 -51.5t42.5 -15.5q38 0 55 14l33 -197q-57 -36 -168 -36q-199 0 -264 151q-120 -160 -355 -160q-156 0 -271 76t-173.5 204.5t-58.5 291.5zM397 545q0 -130 64 -214.5t184 -84.5 q122 0 188 84.5t66 214.5q0 131 -66.5 217t-187.5 86q-120 0 -184 -86t-64 -217z" />
<glyph horiz-adv-x="669" d="M131 326v1136h313v-1143q0 -53 21.5 -72.5t60.5 -19.5q56 0 97 23l51 -225q-82 -45 -217 -45q-195 0 -275 110q-30 43 -40.5 95.5t-10.5 140.5z" />
<glyph horiz-adv-x="1259" d="M104 -260l115 231q137 -86 318 -86q132 0 206 55t74 162v113q-134 -147 -328 -147q-179 0 -273.5 109.5t-94.5 283.5v633h313v-562q0 -186 170 -186q92 0 152.5 57t60.5 158v533h313v-916q0 -271 -135 -403q-155 -152 -452 -152q-123 0 -237.5 30.5t-201.5 86.5z" />
<glyph horiz-adv-x="1253" d="M10 0l434 1120h365l434 -1120h-332l-75 219h-428l-78 -219h-320zM481 449h281l-139 417z" />
<glyph horiz-adv-x="1232" d="M135 0v1120h588q185 0 290 -78.5t105 -214.5q0 -72 -37 -135t-106 -100q182 -81 182 -268q0 -150 -107 -237t-298 -87h-617zM449 242h280q51 0 81 31t30 77q0 48 -30 80.5t-83 32.5h-278v-221zM449 688h249q45 0 74 27t29 69q0 43 -29 68t-72 25h-251v-189z" />
<glyph horiz-adv-x="1218" d="M68 563q0 260 162.5 422t424.5 162q342 0 510 -293l-247 -137q-37 88 -104 132t-152 44q-126 0 -199.5 -94t-73.5 -236q0 -143 73.5 -238.5t199.5 -95.5q179 0 260 183l252 -125q-67 -147 -202 -229.5t-317 -82.5q-262 0 -424.5 163.5t-162.5 424.5z" />
<glyph horiz-adv-x="1302" d="M135 0v1120h506q282 0 436 -153t154 -404q0 -254 -154 -408.5t-436 -154.5h-506zM449 260h192q129 0 198.5 81.5t69.5 221.5q0 138 -69 216.5t-199 78.5h-192v-598z" />
<glyph horiz-adv-x="1138" d="M135 0v1120h914v-256h-600v-168h526v-229h-526v-215h620v-252h-934z" />
<glyph horiz-adv-x="1118" d="M135 0v1120h930v-256h-614v-215h524v-229h-524v-420h-316z" />
<glyph horiz-adv-x="1296" d="M68 563q0 262 166 423t436 161q171 0 305 -75t213 -212l-254 -119q-81 152 -264 152q-132 0 -206.5 -94t-74.5 -242q0 -156 75.5 -247t217.5 -91q107 0 177.5 50t84.5 130h-264v228h553q10 -36 10 -97q0 -158 -64.5 -282t-196.5 -198.5t-314 -74.5q-277 0 -438.5 162 t-161.5 426z" />
<glyph horiz-adv-x="1327" d="M135 0v1120h314v-405h430v405h313v-1120h-313v455h-430v-455h-314z" />
<glyph horiz-adv-x="583" d="M135 0v1120h314v-1120h-314z" />
<glyph horiz-adv-x="1013" d="M10 227l250 140q58 -140 178 -140q140 0 140 154v739h311v-733q0 -187 -115 -299.5t-328 -112.5q-314 0 -436 252z" />
<glyph horiz-adv-x="1024" d="M20 227l250 140q58 -140 179 -140q139 0 139 154v477h-289v262h600v-733q0 -187 -114.5 -299.5t-327.5 -112.5q-315 0 -437 252z" />
<glyph horiz-adv-x="1257" d="M135 0v1120h314v-483l393 483h377l-414 -456l442 -664h-370l-285 453q-9 -10 -143 -166v-287h-314z" />
<glyph horiz-adv-x="1056" d="M135 0v1120h314v-860h573v-260h-887z" />
<glyph horiz-adv-x="1632" d="M135 0v1120h420l264 -745l264 745h414v-1120h-295v760l-280 -760h-215l-277 752v-752h-295z" />
<glyph horiz-adv-x="1347" d="M135 0v1120h381l404 -717v717h292v-1120h-364l-420 731v-731h-293z" />
<glyph horiz-adv-x="1329" d="M68 563q0 120 40.5 226t115.5 185.5t188.5 126t251.5 46.5q139 0 253 -46.5t189 -126t115.5 -185.5t40.5 -226q0 -122 -40.5 -228.5t-115.5 -186.5t-189 -126.5t-253 -46.5q-138 0 -251.5 46.5t-188.5 126.5t-115.5 186.5t-40.5 228.5zM391 563q0 -89 30 -160.5t93 -116 t150 -44.5q132 0 204 91.5t72 229.5q0 135 -72 226.5t-204 91.5q-129 0 -201 -91.5t-72 -226.5z" />
<glyph horiz-adv-x="1179" d="M135 0v1120h563q200 0 319.5 -107.5t119.5 -287.5q0 -151 -86 -252t-236 -129q-67 -12 -147 -12h-219v-332h-314zM449 590h249q59 0 95 35.5t36 99.5q0 77 -43.5 105t-117.5 28h-219v-268z" />
<glyph horiz-adv-x="1329" d="M68 561q0 120 40.5 226t115.5 185.5t188.5 126t251.5 46.5t252.5 -46.5t189 -126t115.5 -185t41 -224.5q0 -123 -41.5 -231.5t-118.5 -186.5l125 -135l-187 -157l-139 163q-106 -41 -237 -41q-138 0 -251.5 46t-188.5 125.5t-115.5 186t-40.5 228.5zM391 555 q0 -139 72 -232.5t201 -93.5q25 0 51 11l-111 131l164 139l123 -137q49 73 49 184q0 137 -72 229.5t-204 92.5q-129 0 -201 -93t-72 -231z" />
<glyph horiz-adv-x="1347" d="M68 561q0 120 40.5 226t115.5 185.5t188.5 126t251.5 46.5t252.5 -46.5t189 -126t115.5 -185t41 -224.5q0 -237 -148 -401l127 -137l-201 -172l-139 165q-104 -43 -237 -43q-138 0 -251.5 46t-188.5 125.5t-115.5 186t-40.5 228.5zM391 561q0 -137 71.5 -228t201.5 -91 q132 0 204 91.5t72 229.5q0 134 -72 225t-204 91q-129 0 -201 -91.5t-72 -226.5z" />
<glyph horiz-adv-x="1247" d="M135 0v1120h594q209 0 321.5 -102t112.5 -266q0 -228 -217 -332l240 -420h-344l-197 367h-196v-367h-314zM449 602h258q64 0 102.5 35t38.5 100q0 64 -38 98.5t-103 34.5h-258v-268z" />
<glyph horiz-adv-x="1167" d="M35 256l227 125q54 -89 148 -129.5t196 -40.5q77 0 129.5 26.5t52.5 75.5q0 31 -14.5 51.5t-62 35.5t-75.5 21t-116 20q-3 1 -4 1q-94 15 -165 39.5t-128.5 64t-88 101t-30.5 141.5q0 114 63 196.5t167 121.5t237 39q326 0 514 -240l-208 -133q-52 68 -132.5 102.5 t-166.5 34.5q-73 0 -119.5 -23t-46.5 -73q0 -17 6.5 -30.5t24 -24t32 -17t48.5 -14t53 -11t65 -11.5q69 -12 121 -24t108 -31t95 -44.5t72 -60t49 -82t16 -105.5q0 -170 -137 -276.5t-377 -106.5q-381 0 -553 281z" />
<glyph horiz-adv-x="1134" d="M57 858v262h1020v-262h-354v-858h-313v858h-353z" />
<glyph horiz-adv-x="1284" d="M123 438v682h313v-682q0 -198 207 -198q99 0 152 49.5t53 148.5v682h313v-682q0 -223 -140 -343t-378 -120q-240 0 -380 120t-140 343z" />
<glyph horiz-adv-x="1216" d="M8 1120h340l262 -770l254 770h344l-436 -1120h-328z" />
<glyph horiz-adv-x="1726" d="M41 1120h340l156 -723l200 723h254l201 -731l156 731h344l-322 -1120h-328l-182 686l-180 -686h-328z" />
<glyph horiz-adv-x="1275" d="M6 0l434 586q-46 61 -395 534h375l221 -336l217 336h373l-393 -534l432 -586h-377l-256 377l-256 -377h-375z" />
<glyph horiz-adv-x="1218" d="M2 1120h365l245 -407l246 407h361l-453 -680v-440h-313v436z" />
<glyph horiz-adv-x="1157" d="M76 0v217l551 641h-529v262h963v-209l-561 -651h577v-260h-1001z" />
<glyph horiz-adv-x="1390" d="M68 547q0 249 135.5 410t361.5 161q203 0 334 -149v125h315v-824q0 -36 13.5 -51.5t42.5 -15.5q38 0 55 14l33 -197q-57 -36 -168 -36q-199 0 -264 151q-120 -160 -355 -160q-156 0 -271 76t-173.5 204.5t-58.5 291.5zM397 545q0 -130 64 -214.5t184 -84.5 q122 0 188 84.5t66 214.5q0 131 -66.5 217t-187.5 86q-120 0 -184 -86t-64 -217zM518 1227q124 164 172 278l254 -43q-35 -82 -125.5 -165t-183.5 -130z" />
<glyph horiz-adv-x="1253" d="M10 0l434 1120h365l434 -1120h-332l-75 219h-428l-78 -219h-320zM481 449h281l-139 417zM500 1227q124 164 172 278l254 -43q-34 -82 -125.5 -165t-184.5 -130z" />
<glyph horiz-adv-x="1390" d="M68 547q0 249 135.5 410t361.5 161q203 0 334 -149v125h315v-824q0 -36 13.5 -51.5t42.5 -15.5q38 0 55 14l33 -197q-57 -36 -168 -36q-199 0 -264 151q-120 -160 -355 -160q-156 0 -271 76t-173.5 204.5t-58.5 291.5zM283 1440l147 43q53 -116 217 -119q165 0 217 119 l148 -43q-23 -112 -117.5 -183t-247.5 -71t-247 71t-117 183zM397 545q0 -130 64 -214.5t184 -84.5q122 0 188 84.5t66 214.5q0 131 -66.5 217t-187.5 86q-120 0 -184 -86t-64 -217z" />
<glyph horiz-adv-x="1253" d="M10 0l434 1120h365l434 -1120h-332l-75 219h-428l-78 -219h-320zM260 1440l148 43q53 -116 217 -119q165 0 217 119l147 -43q-23 -112 -117 -183t-247 -71t-247.5 71t-117.5 183zM481 449h281l-139 417z" />
<glyph horiz-adv-x="1390" d="M68 547q0 249 135.5 410t361.5 161q203 0 334 -149v125h315v-824q0 -36 13.5 -51.5t42.5 -15.5q38 0 55 14l33 -197q-57 -36 -168 -36q-199 0 -264 151q-120 -160 -355 -160q-156 0 -271 76t-173.5 204.5t-58.5 291.5zM268 1286q164 107 267 199h221q105 -95 266 -199 l-72 -115q-80 17 -162.5 55t-142.5 83q-60 -45 -142.5 -83t-162.5 -55zM397 545q0 -130 64 -214.5t184 -84.5q122 0 188 84.5t66 214.5q0 131 -66.5 217t-187.5 86q-120 0 -184 -86t-64 -217z" />
<glyph horiz-adv-x="1253" d="M10 0l434 1120h365l434 -1120h-332l-75 219h-428l-78 -219h-320zM248 1286q161 104 266 199h221q105 -95 266 -199l-71 -115q-80 17 -162.5 55t-142.5 83q-60 -45 -143 -83t-163 -55zM481 449h281l-139 417z" />
<glyph horiz-adv-x="1390" d="M68 547q0 249 135.5 410t361.5 161q203 0 334 -149v125h315v-824q0 -36 13.5 -51.5t42.5 -15.5q38 0 55 14l33 -197q-57 -36 -168 -36q-199 0 -264 151q-120 -160 -355 -160q-156 0 -271 76t-173.5 204.5t-58.5 291.5zM299 1204v234h229v-234h-229zM397 545 q0 -130 64 -214.5t184 -84.5q122 0 188 84.5t66 214.5q0 131 -66.5 217t-187.5 86q-120 0 -184 -86t-64 -217zM764 1204v234h227v-234h-227z" />
<glyph horiz-adv-x="1253" d="M10 0l434 1120h365l434 -1120h-332l-75 219h-428l-78 -219h-320zM276 1204v234h230v-234h-230zM481 449h281l-139 417zM741 1204v234h228v-234h-228z" />
<glyph horiz-adv-x="2017" d="M-14 0l690 1364h1237v-293h-633v-231h541v-260h-541v-289h653v-291h-979v567q-78 -13 -150 -41t-145 -76t-136.5 -124t-108.5 -174l-72 -152h-356zM680 731q124 69 274 96v303h-84z" />
<glyph horiz-adv-x="2066" d="M66 547q0 249 135.5 410t361.5 161q203 0 334 -149v125h315v-97q128 121 306 121q222 0 353.5 -155.5t131.5 -409.5q0 -34 -4 -84h-787q6 -111 80 -171t195 -60q178 0 297 129l205 -185q-204 -207 -519 -207q-291 0 -438 181q-71 -85 -176.5 -133t-234.5 -48 q-257 0 -406 157.5t-149 414.5zM395 545q0 -130 64 -214.5t184 -84.5q122 0 188 84.5t66 214.5q0 131 -66.5 217t-187.5 86q-120 0 -184 -86t-64 -217zM1212 668h482q-7 104 -73 160.5t-167 56.5q-102 0 -167.5 -57.5t-74.5 -159.5z" />
<glyph horiz-adv-x="1763" d="M-4 0l596 1120h1081v-254h-536v-170h458v-229h-458v-215h557v-252h-869v236h-370l-117 -236h-342zM569 465h256v426h-51z" />
<glyph horiz-adv-x="1808" d="M-4 0l596 1120h1126v-254h-534v-170h458v-229h-458v-215h555v-252h-869v453q-150 -30 -279.5 -115.5t-193.5 -218.5l-59 -119h-342zM618 580q122 78 252 102v209h-96z" />
<glyph horiz-adv-x="2017" d="M-14 0l690 1364h1237v-293h-633v-231h541v-260h-541v-289h653v-291h-979v567q-78 -13 -150 -41t-145 -76t-136.5 -124t-108.5 -174l-72 -152h-356zM680 731q124 69 274 96v303h-84zM868 1485q124 164 172 278l254 -43q-35 -82 -125.5 -165t-183.5 -130z" />
<glyph horiz-adv-x="2066" d="M66 547q0 249 135.5 410t361.5 161q203 0 334 -149v125h315v-97q128 121 306 121q222 0 353.5 -155.5t131.5 -409.5q0 -34 -4 -84h-787q6 -111 80 -171t195 -60q178 0 297 129l205 -185q-204 -207 -519 -207q-291 0 -438 181q-71 -85 -176.5 -133t-234.5 -48 q-257 0 -406 157.5t-149 414.5zM395 545q0 -130 64 -214.5t184 -84.5q122 0 188 84.5t66 214.5q0 131 -66.5 217t-187.5 86q-120 0 -184 -86t-64 -217zM930 1227q124 164 172 278l254 -43q-35 -82 -125.5 -165t-183.5 -130zM1212 668h482q-7 104 -73 160.5t-167 56.5 q-102 0 -167.5 -57.5t-74.5 -159.5z" />
<glyph horiz-adv-x="1763" d="M-4 0l596 1120h1081v-254h-536v-170h458v-229h-458v-215h557v-252h-869v236h-370l-117 -236h-342zM569 465h256v426h-51zM782 1227q124 164 172 278l254 -43q-35 -82 -125.5 -165t-183.5 -130z" />
<glyph horiz-adv-x="1808" d="M-4 0l596 1120h1126v-254h-534v-170h458v-229h-458v-215h555v-252h-869v453q-150 -30 -279.5 -115.5t-193.5 -218.5l-59 -119h-342zM618 580q122 78 252 102v209h-96zM780 1227q124 164 172 278l254 -43q-35 -82 -125.5 -165t-183.5 -130z" />
<glyph horiz-adv-x="1390" d="M68 547q0 249 135.5 410t361.5 161q203 0 334 -149v125h315v-824q0 -36 13.5 -51.5t42.5 -15.5q38 0 55 14l33 -197q-57 -36 -168 -36q-199 0 -264 151q-120 -160 -355 -160q-156 0 -271 76t-173.5 204.5t-58.5 291.5zM362 1462l256 43q40 -100 170 -278l-116 -60 q-92 47 -183 130t-127 165zM397 545q0 -130 64 -214.5t184 -84.5q122 0 188 84.5t66 214.5q0 131 -66.5 217t-187.5 86q-120 0 -184 -86t-64 -217z" />
<glyph horiz-adv-x="1253" d="M10 0l434 1120h365l434 -1120h-332l-75 219h-428l-78 -219h-320zM332 1462l256 43q40 -100 170 -278l-117 -60q-91 47 -182 130t-127 165zM481 449h281l-139 417z" />
<glyph horiz-adv-x="1390" d="M68 547q0 249 135.5 410t361.5 161q203 0 334 -149v125h315v-824q0 -36 13.5 -51.5t42.5 -15.5q38 0 55 14l33 -197q-57 -36 -168 -36q-199 0 -264 151q-120 -160 -355 -160q-156 0 -271 76t-173.5 204.5t-58.5 291.5zM311 1214v170h680v-170h-680zM397 545 q0 -130 64 -214.5t184 -84.5q122 0 188 84.5t66 214.5q0 131 -66.5 217t-187.5 86q-120 0 -184 -86t-64 -217z" />
<glyph horiz-adv-x="1253" d="M10 0l434 1120h365l434 -1120h-332l-75 219h-428l-78 -219h-320zM285 1214v170h680v-170h-680zM481 449h281l-139 417z" />
<glyph horiz-adv-x="1388" d="M68 547q0 249 135.5 410t361.5 161q203 0 334 -149v125h315v-824q0 -37 14 -52t44 -15q36 0 53 14l33 -197q-57 -34 -166 -34q-64 -44 -64 -99q0 -34 27.5 -52.5t77.5 -18.5q82 0 129 43v-185q-57 -39 -158 -39q-117 0 -191.5 55t-74.5 142q0 108 125 172 q-95 37 -137 131q-120 -160 -355 -160q-156 0 -271 76t-173.5 204.5t-58.5 291.5zM397 545q0 -130 64 -214.5t184 -84.5q122 0 188 84.5t66 214.5q0 131 -66.5 217t-187.5 86q-120 0 -184 -86t-64 -217z" />
<glyph horiz-adv-x="1253" d="M10 0l434 1120h365l434 -1120q-131 -6 -195.5 -32.5t-64.5 -78.5q0 -38 31 -60t84 -22q78 0 145 60v-184q-68 -56 -180 -56q-118 0 -192 56t-74 141q0 102 112 180l-73 215h-428l-78 -219h-320zM481 449h281l-139 417z" />
<glyph horiz-adv-x="1390" d="M68 547q0 249 135.5 410t361.5 161q203 0 334 -149v125h315v-824q0 -36 13.5 -51.5t42.5 -15.5q38 0 55 14l33 -197q-57 -36 -168 -36q-199 0 -264 151q-120 -160 -355 -160q-156 0 -271 76t-173.5 204.5t-58.5 291.5zM391 1380q0 93 71.5 157.5t182.5 64.5t182.5 -64.5 t71.5 -157.5q0 -92 -71.5 -155.5t-182.5 -63.5t-182.5 63.5t-71.5 155.5zM397 545q0 -130 64 -214.5t184 -84.5q122 0 188 84.5t66 214.5q0 131 -66.5 217t-187.5 86q-120 0 -184 -86t-64 -217zM543 1378q0 -41 30.5 -71.5t71.5 -30.5q43 0 74 30.5t31 71.5q0 43 -31 74 t-74 31q-41 0 -71.5 -31t-30.5 -74z" />
<glyph horiz-adv-x="1253" d="M10 0l422 1087q-59 56 -59 140q0 91 72 155t182 64t182 -64t72 -155q0 -77 -60 -140l422 -1087h-332l-75 219h-428l-78 -219h-320zM481 449h281l-139 417zM522 1225q0 -43 31 -74t74 -31t73.5 31t30.5 74q0 42 -31 73t-73 31q-43 0 -74 -31.5t-31 -72.5z" />
<glyph horiz-adv-x="1390" d="M68 547q0 249 135.5 410t361.5 161q203 0 334 -149v125h315v-824q0 -36 13.5 -51.5t42.5 -15.5q38 0 55 14l33 -197q-57 -36 -168 -36q-199 0 -264 151q-120 -160 -355 -160q-156 0 -271 76t-173.5 204.5t-58.5 291.5zM391 1372q0 92 71.5 156.5t182.5 64.5t182.5 -64.5 t71.5 -156.5t-71.5 -155.5t-182.5 -63.5t-182.5 63.5t-71.5 155.5zM397 545q0 -130 64 -214.5t184 -84.5q122 0 188 84.5t66 214.5q0 131 -66.5 217t-187.5 86q-120 0 -184 -86t-64 -217zM446 1681q123 163 172 279l254 -43q-35 -82 -125.5 -165t-183.5 -130zM543 1370 q0 -41 30.5 -71.5t71.5 -30.5q43 0 74 30.5t31 71.5q0 43 -31 74t-74 31q-41 0 -71.5 -31t-30.5 -74z" />
<glyph horiz-adv-x="1253" d="M10 0l422 1087q-59 56 -59 140q0 91 72 155t182 64t182 -64t72 -155q0 -77 -60 -140l422 -1087h-332l-75 219h-428l-78 -219h-320zM436 1526q124 164 172 278l254 -43q-35 -82 -125.5 -165t-183.5 -130zM481 449h281l-139 417zM522 1225q0 -43 31 -74t74 -31t73.5 31 t30.5 74q0 42 -31 73t-73 31q-43 0 -74 -31.5t-31 -72.5z" />
<glyph horiz-adv-x="1390" d="M68 547q0 249 135.5 410t361.5 161q203 0 334 -149v125h315v-824q0 -36 13.5 -51.5t42.5 -15.5q38 0 55 14l33 -197q-57 -36 -168 -36q-199 0 -264 151q-120 -160 -355 -160q-156 0 -271 76t-173.5 204.5t-58.5 291.5zM252 1268q36 89 103.5 145.5t154.5 56.5 q59 0 146 -39.5t126 -39.5t79.5 22.5t72.5 63.5l110 -76q-38 -89 -105.5 -146t-152.5 -57q-60 0 -147.5 40t-124.5 40q-40 0 -81 -22.5t-71 -63.5zM397 545q0 -130 64 -214.5t184 -84.5q122 0 188 84.5t66 214.5q0 131 -66.5 217t-187.5 86q-120 0 -184 -86t-64 -217z" />
<glyph horiz-adv-x="1253" d="M10 0l434 1120h365l434 -1120h-332l-75 219h-428l-78 -219h-320zM227 1268q36 89 103.5 145.5t154.5 56.5q59 0 146.5 -39.5t126.5 -39.5t79 22.5t72 63.5l111 -76q-38 -89 -105.5 -146t-152.5 -57q-60 0 -148 40t-125 40q-40 0 -80.5 -22.5t-70.5 -63.5zM481 449h281 l-139 417z" />
<glyph horiz-adv-x="1218" d="M68 563q0 260 162.5 422t424.5 162q342 0 510 -293l-247 -137q-37 88 -104 132t-152 44q-126 0 -199.5 -94t-73.5 -236q0 -143 73.5 -238.5t199.5 -95.5q179 0 260 183l252 -125q-67 -147 -202 -229.5t-317 -82.5q-262 0 -424.5 163.5t-162.5 424.5zM524 1227 q121 165 162 278l256 -43q-36 -83 -123.5 -165t-177.5 -130z" />
<glyph horiz-adv-x="1218" d="M68 563q0 260 162.5 422t424.5 162q342 0 510 -293l-247 -137q-37 88 -104 132t-152 44q-126 0 -199.5 -94t-73.5 -236q0 -143 73.5 -238.5t199.5 -95.5q179 0 260 183l252 -125q-67 -147 -202 -229.5t-317 -82.5q-262 0 -424.5 163.5t-162.5 424.5zM272 1386l72 115 q80 -17 163 -54.5t142 -82.5q59 45 142 82.5t163 54.5l72 -115q-165 -107 -266 -198h-221q-99 89 -267 198z" />
<glyph horiz-adv-x="1220" d="M70 563q0 260 162.5 422t424.5 162q342 0 510 -293l-247 -137q-37 88 -104 132t-152 44q-126 0 -199.5 -94t-73.5 -236q0 -143 73.5 -238.5t199.5 -95.5q179 0 260 183l252 -125q-57 -126 -165.5 -204.5t-254.5 -98.5q73 -67 73 -154q0 -85 -75 -141t-191 -56 q-63 0 -114.5 16.5t-77.5 39.5v190q73 -69 164 -69q49 0 78.5 20.5t29.5 60.5q0 43 -43 86q-239 19 -384.5 179t-145.5 407z" />
<glyph horiz-adv-x="1218" d="M68 563q0 260 162.5 422t424.5 162q342 0 510 -293l-247 -137q-37 88 -104 132t-152 44q-126 0 -199.5 -94t-73.5 -236q0 -143 73.5 -238.5t199.5 -95.5q179 0 260 183l252 -125q-67 -147 -202 -229.5t-317 -82.5q-262 0 -424.5 163.5t-162.5 424.5zM524 1212v226h246 v-226h-246z" />
<glyph horiz-adv-x="1218" d="M68 563q0 260 162.5 422t424.5 162q342 0 510 -293l-247 -137q-37 88 -104 132t-152 44q-126 0 -199.5 -94t-73.5 -236q0 -143 73.5 -238.5t199.5 -95.5q179 0 260 183l252 -125q-67 -147 -202 -229.5t-317 -82.5q-262 0 -424.5 163.5t-162.5 424.5zM272 1286 q164 107 267 199h221q105 -95 266 -199l-72 -115q-80 17 -162.5 55t-142.5 83q-60 -45 -142.5 -83t-162.5 -55z" />
<glyph horiz-adv-x="1302" d="M135 0v1120h506q282 0 436 -153t154 -404q0 -254 -154 -408.5t-436 -154.5h-506zM254 1386l72 115q80 -17 163 -54.5t142 -82.5q59 45 142 82.5t163 54.5l72 -115q-168 -109 -267 -198h-221q-101 91 -266 198zM449 260h192q129 0 198.5 81.5t69.5 221.5q0 138 -69 216.5 t-199 78.5h-192v-598z" />
<glyph horiz-adv-x="1304" d="M20 473v172h115v475h508q281 0 435.5 -153t154.5 -404q0 -254 -154.5 -408.5t-435.5 -154.5h-508v473h-115zM449 260h194q129 0 198.5 81.5t69.5 221.5q0 138 -69 216.5t-199 78.5h-194v-213h247v-172h-247v-213z" />
<glyph horiz-adv-x="1138" d="M135 0v1120h914v-256h-600v-168h526v-229h-526v-215h620v-252h-934zM442 1227q124 164 172 278l254 -43q-35 -82 -125.5 -165t-183.5 -130z" />
<glyph horiz-adv-x="1138" d="M135 0v1120h914v-256h-600v-168h526v-229h-526v-215h620v-252h-934zM242 1440l147 43q53 -116 217 -119q165 0 217 119l148 -43q-23 -112 -117.5 -183t-247.5 -71t-247 71t-117 183z" />
<glyph horiz-adv-x="1138" d="M135 0v1120h914v-256h-600v-168h526v-229h-526v-215h620v-252h-934zM213 1386l72 115q80 -17 163 -54.5t142 -82.5q59 45 142 82.5t163 54.5l72 -115q-168 -109 -267 -198h-221q-101 91 -266 198z" />
<glyph horiz-adv-x="1138" d="M135 0v1120h914v-256h-600v-168h526v-229h-526v-215h620v-252h-934zM229 1286q164 107 267 199h221q105 -95 266 -199l-72 -115q-80 17 -162.5 55t-142.5 83q-60 -45 -142.5 -83t-162.5 -55z" />
<glyph horiz-adv-x="1138" d="M135 0v1120h914v-256h-600v-168h526v-229h-526v-215h620v-252h-934zM254 1204v234h229v-234h-229zM719 1204v234h227v-234h-227z" />
<glyph horiz-adv-x="1138" d="M135 0v1120h914v-256h-600v-168h526v-229h-526v-215h620v-252h-934zM483 1212v226h246v-226h-246z" />
<glyph horiz-adv-x="1138" d="M135 0v1120h914v-256h-600v-168h526v-229h-526v-215h620v-252h-934zM338 1462l256 43q40 -100 170 -278l-117 -60q-91 47 -182 130t-127 165z" />
<glyph horiz-adv-x="1138" d="M135 0v1120h914v-256h-600v-168h526v-229h-526v-215h620v-252h-934zM268 1214v170h680v-170h-680z" />
<glyph horiz-adv-x="1138" d="M135 0v1120h914v-256h-600v-168h526v-229h-526v-215h620v-252h-227q-49 -49 -49 -104q0 -39 31 -62.5t81 -23.5q49 0 92.5 19.5t71.5 45.5v-180q-29 -24 -81 -42t-116 -18q-117 0 -191.5 56t-74.5 143q0 89 80 166h-551z" />
<glyph horiz-adv-x="1304" d="M20 473v172h115v475h508q282 0 436 -152t154 -405q0 -256 -154 -409.5t-436 -153.5h-508v473h-115zM449 260h194q128 0 198 80.5t70 222.5q0 140 -70 217.5t-198 77.5h-194v-213h247v-172h-247v-213z" />
<glyph horiz-adv-x="1296" d="M68 563q0 262 166 423t436 161q171 0 305 -75t213 -212l-254 -119q-81 152 -264 152q-132 0 -206.5 -94t-74.5 -242q0 -156 75.5 -247t217.5 -91q107 0 177.5 50t84.5 130h-264v228h553q10 -36 10 -97q0 -158 -64.5 -282t-196.5 -198.5t-314 -74.5q-277 0 -438.5 162 t-161.5 426zM299 1440l147 43q53 -116 218 -119q165 0 217 119l147 -43q-23 -112 -117 -183t-247 -71t-247.5 71t-117.5 183z" />
<glyph horiz-adv-x="1296" d="M68 563q0 262 166 423t436 161q171 0 305 -75t213 -212l-254 -119q-81 152 -264 152q-132 0 -206.5 -94t-74.5 -242q0 -156 75.5 -247t217.5 -91q107 0 177.5 50t84.5 130h-264v228h553q10 -36 10 -97q0 -158 -64.5 -282t-196.5 -198.5t-314 -74.5q-277 0 -438.5 162 t-161.5 426zM393 -352q120 168 158 272l258 -29q-33 -84 -121 -168t-178 -133z" />
<glyph horiz-adv-x="1296" d="M68 563q0 262 166 423t436 161q171 0 305 -75t213 -212l-254 -119q-81 152 -264 152q-132 0 -206.5 -94t-74.5 -242q0 -156 75.5 -247t217.5 -91q107 0 177.5 50t84.5 130h-264v228h553q10 -36 10 -97q0 -158 -64.5 -282t-196.5 -198.5t-314 -74.5q-277 0 -438.5 162 t-161.5 426zM539 1212v226h245v-226h-245z" />
<glyph horiz-adv-x="1296" d="M68 563q0 262 166 423t436 161q171 0 305 -75t213 -212l-254 -119q-81 152 -264 152q-132 0 -206.5 -94t-74.5 -242q0 -156 75.5 -247t217.5 -91q107 0 177.5 50t84.5 130h-264v228h553q10 -36 10 -97q0 -158 -64.5 -282t-196.5 -198.5t-314 -74.5q-277 0 -438.5 162 t-161.5 426zM283 1286q161 104 266 199h221q105 -95 266 -199l-71 -115q-80 17 -163 55t-143 83q-60 -45 -142.5 -83t-162.5 -55z" />
<glyph horiz-adv-x="1329" d="M29 846v166h106v108h316v-108h428v108h315v-108h106v-166h-106v-846h-315v455h-428v-455h-316v846h-106zM451 715h428v131h-428v-131z" />
<glyph horiz-adv-x="1327" d="M135 0v1120h314v-405h430v405h313v-1120h-313v455h-430v-455h-314zM287 1286q161 104 266 199h221q105 -95 266 -199l-71 -115q-80 17 -162.5 55t-142.5 83q-60 -45 -143 -83t-163 -55z" />
<glyph horiz-adv-x="583" d="M135 0v1120h314v-1120h-314zM150 1227q124 164 172 278l253 -43q-35 -82 -125.5 -165t-183.5 -130z" />
<glyph horiz-adv-x="583" d="M-76 1440l148 43q53 -116 217 -119q165 0 217 119l147 -43q-23 -112 -117 -183t-247 -71t-247.5 71t-117.5 183zM135 0v1120h314v-1120h-314z" />
<glyph horiz-adv-x="583" d="M-88 1286q161 104 266 199h221q103 -92 267 -199l-72 -115q-80 17 -162.5 55t-142.5 83q-60 -45 -142.5 -83t-162.5 -55zM135 0v1120h314v-1120h-314z" />
<glyph horiz-adv-x="583" d="M-29 1204v234h230v-234h-230zM135 0v1120h314v-1120h-314zM381 1204v234h229v-234h-229z" />
<glyph horiz-adv-x="583" d="M135 0v1120h314v-1120h-314zM166 1212v226h246v-226h-246z" />
<glyph horiz-adv-x="583" d="M35 1462l256 43q40 -100 170 -278l-117 -60q-91 47 -182 130t-127 165zM135 0v1120h314v-1120h-314z" />
<glyph horiz-adv-x="583" d="M-49 1214v170h680v-170h-680zM135 0v1120h314v-1120h-314z" />
<glyph horiz-adv-x="581" d="M41 -164q0 36 19.5 72.5t34.5 52t40 39.5v1120h311v-1120q-225 -9 -225 -111q0 -34 31 -51.5t78 -17.5q38 0 74 11t55 28v-185q-57 -39 -152 -39q-121 0 -193.5 55.5t-72.5 145.5z" />
<glyph horiz-adv-x="583" d="M-106 1268q36 89 103.5 145.5t154.5 56.5q59 0 146 -39.5t126 -39.5t79 22.5t72 63.5l111 -76q-38 -89 -105.5 -146t-152.5 -57q-60 0 -147.5 40t-124.5 40q-40 0 -81 -22.5t-71 -63.5zM135 0v1120h314v-1120h-314z" />
<glyph horiz-adv-x="1138" d="M16 268l269 146q67 -152 209 -152q89 0 135.5 53t46.5 152v604h-357v293h685v-889q0 -243 -135 -371.5t-365 -128.5q-170 0 -295 73t-193 220zM295 1544q161 104 266 199h221q103 -92 267 -199l-72 -114q-80 17 -163 54.5t-142 82.5q-59 -45 -142 -82.5t-163 -54.5z" />
<glyph horiz-adv-x="1013" d="M10 227l250 140q58 -140 178 -140q140 0 140 154v739h311v-733q0 -187 -115 -299.5t-328 -112.5q-314 0 -436 252zM332 1286q161 104 266 199h221q105 -95 266 -199l-71 -115q-80 17 -162.5 55t-142.5 83q-60 -45 -143 -83t-163 -55z" />
<glyph horiz-adv-x="1024" d="M20 227l250 140q58 -140 179 -140q139 0 139 154v477h-289v262h600v-733q0 -187 -114.5 -299.5t-327.5 -112.5q-315 0 -437 252zM225 1286q164 107 267 199h221q105 -95 266 -199l-72 -115q-80 17 -162.5 55t-142.5 83q-60 -45 -142.5 -83t-162.5 -55z" />
<glyph horiz-adv-x="1257" d="M137 0v1120h314v-483l393 483h377l-414 -456l442 -664h-370l-285 453q-9 -10 -143 -166v-287h-314zM426 -352q120 168 158 272l258 -29q-33 -84 -121 -168t-178 -133z" />
<glyph horiz-adv-x="669" d="M129 1571q124 164 172 278l254 -43q-35 -82 -125.5 -165t-183.5 -130zM131 326v1136h313v-1143q0 -53 21.5 -72.5t60.5 -19.5q56 0 97 23l51 -225q-82 -45 -217 -45q-195 0 -275 110q-30 43 -40.5 95.5t-10.5 140.5z" />
<glyph horiz-adv-x="1056" d="M135 0v1120h314v-860h573v-260h-887zM135 1227q124 164 172 278l254 -43q-35 -82 -125.5 -165t-183.5 -130z" />
<glyph horiz-adv-x="808" d="M131 326v1136h313v-1143q0 -53 21.5 -72.5t60.5 -19.5q56 0 97 23l51 -225q-82 -45 -217 -45q-195 0 -275 110q-30 43 -40.5 95.5t-10.5 140.5zM588 954q121 105 121 220q-1 42 -33.5 109t-32.5 132v47h281v-176q0 -138 -56.5 -243t-185.5 -205z" />
<glyph horiz-adv-x="1056" d="M135 0v1120h314v-860h573v-260h-887zM674 674q106 95 106 192q-1 37 -29 96.5t-28 116.5v41h248v-153q0 -122 -50 -215.5t-163 -180.5z" />
<glyph horiz-adv-x="671" d="M123 -352q120 168 158 272l258 -29q-33 -84 -121 -168t-178 -133zM133 326v1136h313v-1143q0 -53 21.5 -72.5t60.5 -19.5q56 0 97 23l51 -225q-82 -45 -217 -45q-195 0 -275 110q-30 43 -40.5 95.5t-10.5 140.5z" />
<glyph horiz-adv-x="1058" d="M137 0v1120h314v-860h573v-260h-887zM356 -352q120 168 158 272l258 -29q-33 -84 -121 -168t-178 -133z" />
<glyph horiz-adv-x="1064" d="M131 326v1136h313v-1143q0 -53 21.5 -72.5t60.5 -19.5q56 0 97 23l51 -225q-82 -45 -217 -45q-195 0 -275 110q-30 43 -40.5 95.5t-10.5 140.5zM653 623q0 79 57.5 136.5t137.5 57.5q79 0 135.5 -57t56.5 -137q0 -79 -56.5 -137t-135.5 -58t-137 58.5t-58 136.5z" />
<glyph horiz-adv-x="1056" d="M135 0v1120h314v-860h573v-260h-887zM606 623q0 79 57.5 136.5t137.5 57.5q79 0 135.5 -57t56.5 -137q0 -79 -56.5 -137t-135.5 -58t-137 58.5t-58 136.5z" />
<glyph horiz-adv-x="755" d="M-8 586v250l201 73v553h313v-442l201 78v-250l-201 -76v-453q0 -54 21.5 -73t60.5 -19q59 0 100 23l51 -225q-82 -45 -221 -45q-194 0 -274 110q-30 43 -40.5 95.5t-10.5 140.5v336z" />
<glyph horiz-adv-x="1110" d="M12 342v227l178 64v487h312v-377l338 131v-227l-338 -129v-258h575v-260h-887v408z" />
<glyph horiz-adv-x="1347" d="M135 0v1120h381l404 -717v717h292v-1120h-364l-420 731v-731h-293zM551 1227q121 165 162 278l256 -43q-36 -83 -123.5 -165t-177.5 -130z" />
<glyph horiz-adv-x="1347" d="M135 0v1120h381l404 -717v717h292v-1120h-364l-420 731v-731h-293zM305 1386l72 115q80 -17 163 -54.5t142 -82.5q59 45 142 82.5t163 54.5l72 -115q-165 -107 -266 -198h-222q-101 91 -266 198z" />
<glyph horiz-adv-x="1351" d="M137 0v1120h381l404 -717v717h292v-1120h-364l-420 731v-731h-293zM428 -352q120 168 158 272l258 -29q-33 -84 -121 -168t-178 -133z" />
<glyph horiz-adv-x="1347" d="M135 0v1120h381l404 -717v717h292v-1120h-364l-420 731v-731h-293zM287 1268q36 89 103.5 145.5t154.5 56.5q59 0 146 -39.5t126 -39.5t79.5 22.5t72.5 63.5l110 -76q-38 -89 -105.5 -146t-152.5 -57q-60 0 -147.5 40t-124.5 40q-40 0 -81 -22.5t-71 -63.5z" />
<glyph horiz-adv-x="1347" d="M135 0v1120h387l398 -600v600h292v-1040q0 -210 -102.5 -324t-310.5 -114q-71 0 -141.5 16.5t-106.5 42.5l106 227q48 -32 107 -32q61 0 97 30.5t44 79.5l-477 719v-725h-293z" />
<glyph horiz-adv-x="1329" d="M68 563q0 120 40.5 226t115.5 185.5t188.5 126t251.5 46.5q139 0 253 -46.5t189 -126t115.5 -185.5t40.5 -226q0 -122 -40.5 -228.5t-115.5 -186.5t-189 -126.5t-253 -46.5q-138 0 -251.5 46.5t-188.5 126.5t-115.5 186.5t-40.5 228.5zM391 563q0 -89 30 -160.5t93 -116 t150 -44.5q132 0 204 91.5t72 229.5q0 135 -72 226.5t-204 91.5q-129 0 -201 -91.5t-72 -226.5zM483 1227q124 164 172 278l254 -43q-35 -82 -125.5 -165t-183.5 -130z" />
<glyph horiz-adv-x="1329" d="M68 563q0 120 40.5 226t115.5 185.5t188.5 126t251.5 46.5q139 0 253 -46.5t189 -126t115.5 -185.5t40.5 -226q0 -122 -40.5 -228.5t-115.5 -186.5t-189 -126.5t-253 -46.5q-138 0 -251.5 46.5t-188.5 126.5t-115.5 186.5t-40.5 228.5zM299 1440l147 43q53 -116 218 -119 q165 0 217 119l147 -43q-23 -112 -117 -183t-247 -71t-247.5 71t-117.5 183zM391 563q0 -89 30 -160.5t93 -116t150 -44.5q132 0 204 91.5t72 229.5q0 135 -72 226.5t-204 91.5q-129 0 -201 -91.5t-72 -226.5z" />
<glyph horiz-adv-x="1329" d="M68 563q0 120 40.5 226t115.5 185.5t188.5 126t251.5 46.5q139 0 253 -46.5t189 -126t115.5 -185.5t40.5 -226q0 -122 -40.5 -228.5t-115.5 -186.5t-189 -126.5t-253 -46.5q-138 0 -251.5 46.5t-188.5 126.5t-115.5 186.5t-40.5 228.5zM287 1286q161 104 266 199h221 q105 -95 266 -199l-71 -115q-80 17 -162.5 55t-142.5 83q-60 -45 -143 -83t-163 -55zM391 563q0 -89 30 -160.5t93 -116t150 -44.5q132 0 204 91.5t72 229.5q0 135 -72 226.5t-204 91.5q-129 0 -201 -91.5t-72 -226.5z" />
<glyph horiz-adv-x="1329" d="M68 563q0 120 40.5 226t115.5 185.5t188.5 126t251.5 46.5q139 0 253 -46.5t189 -126t115.5 -185.5t40.5 -226q0 -122 -40.5 -228.5t-115.5 -186.5t-189 -126.5t-253 -46.5q-138 0 -251.5 46.5t-188.5 126.5t-115.5 186.5t-40.5 228.5zM317 1204v234h230v-234h-230z M391 563q0 -89 30 -160.5t93 -116t150 -44.5q132 0 204 91.5t72 229.5q0 135 -72 226.5t-204 91.5q-129 0 -201 -91.5t-72 -226.5zM782 1204v234h228v-234h-228z" />
<glyph horiz-adv-x="2140" d="M70 680q0 148 48.5 277.5t136 225t218.5 151t289 55.5q94 0 203 -25h1073v-293h-688q75 -100 96 -231h500v-260h-492q-15 -164 -104 -289h708v-291h-1091q-95 -25 -201 -25q-159 0 -291 55t-220 150t-136.5 224t-48.5 276zM410 682q0 -177 94 -292.5t262 -115.5 q114 0 197 55.5t123 146.5t40 206t-40 206t-123 146.5t-197 55.5q-167 0 -261.5 -116t-94.5 -292z" />
<glyph horiz-adv-x="1835" d="M72 555q0 255 156 410t440 155h1077v-254h-592v-170h518v-229h-518v-215h612v-252h-1097q-283 0 -439.5 152.5t-156.5 402.5zM393 555q0 -137 72 -220t203 -83h174v614h-174q-130 0 -202.5 -85.5t-72.5 -225.5z" />
<glyph horiz-adv-x="1845" d="M68 561q0 121 40.5 227.5t115.5 186.5t188.5 126t251.5 46q106 0 198 -27h893v-256h-584q53 -71 72 -168h438v-229h-434q-12 -120 -78 -215h607v-252h-926q-89 -25 -186 -25q-138 0 -251.5 46t-188.5 126t-115.5 186.5t-40.5 227.5zM391 561q0 -136 72 -227.5t203 -91.5 q130 0 202 92t72 229q0 135 -72 226.5t-202 91.5q-131 0 -203 -91t-72 -229z" />
<glyph horiz-adv-x="1329" d="M68 563q0 120 40.5 226t115.5 185.5t188.5 126t251.5 46.5q139 0 253 -46.5t189 -126t115.5 -185.5t40.5 -226q0 -122 -40.5 -228.5t-115.5 -186.5t-189 -126.5t-253 -46.5q-138 0 -251.5 46.5t-188.5 126.5t-115.5 186.5t-40.5 228.5zM389 1462l256 43q40 -100 170 -278 l-117 -60q-91 47 -182 130t-127 165zM391 563q0 -89 30 -160.5t93 -116t150 -44.5q132 0 204 91.5t72 229.5q0 135 -72 226.5t-204 91.5q-129 0 -201 -91.5t-72 -226.5z" />
<glyph horiz-adv-x="1329" d="M68 563q0 120 40.5 226t115.5 185.5t188.5 126t251.5 46.5q139 0 253 -46.5t189 -126t115.5 -185.5t40.5 -226q0 -122 -40.5 -228.5t-115.5 -186.5t-189 -126.5t-253 -46.5q-138 0 -251.5 46.5t-188.5 126.5t-115.5 186.5t-40.5 228.5zM383 1227q125 171 170 278l235 -43 q-34 -82 -124.5 -165t-182.5 -130zM391 563q0 -89 30 -160.5t93 -116t150 -44.5q132 0 204 91.5t72 229.5q0 135 -72 226.5t-204 91.5q-129 0 -201 -91.5t-72 -226.5zM758 1227q125 171 170 278l235 -43q-34 -82 -124.5 -165t-182.5 -130z" />
<glyph horiz-adv-x="1329" d="M68 563q0 120 40.5 226t115.5 185.5t188.5 126t251.5 46.5q139 0 253 -46.5t189 -126t115.5 -185.5t40.5 -226q0 -122 -40.5 -228.5t-115.5 -186.5t-189 -126.5t-253 -46.5q-138 0 -251.5 46.5t-188.5 126.5t-115.5 186.5t-40.5 228.5zM326 1214v170h680v-170h-680z M391 563q0 -89 30 -160.5t93 -116t150 -44.5q132 0 204 91.5t72 229.5q0 135 -72 226.5t-204 91.5q-129 0 -201 -91.5t-72 -226.5z" />
<glyph horiz-adv-x="1329" d="M68 561q0 120 40.5 226t115.5 185.5t188.5 126t251.5 46.5q149 0 282 -60l47 66l117 -80l-45 -63q95 -79 146 -195.5t51 -249.5q0 -123 -40.5 -229.5t-115.5 -186.5t-189 -126t-253 -46q-151 0 -281 60l-45 -66l-117 80l43 62q-95 79 -145.5 196.5t-50.5 253.5zM391 561 q0 -116 51 -196l340 485q-56 29 -118 29q-129 0 -201 -91.5t-72 -226.5zM547 268q48 -26 117 -26q132 0 204 91.5t72 229.5q0 113 -53 193z" />
<glyph horiz-adv-x="1329" d="M68 561q0 120 40.5 226t115.5 185.5t188.5 126t251.5 46.5q149 0 282 -60l47 66l117 -80l-45 -63q95 -79 146 -195.5t51 -249.5q0 -123 -40.5 -229.5t-115.5 -186.5t-189 -126t-253 -46q-151 0 -281 60l-45 -66l-117 80l43 62q-95 79 -145.5 196.5t-50.5 253.5zM391 561 q0 -116 51 -196l340 485q-56 29 -118 29q-129 0 -201 -91.5t-72 -226.5zM537 1227q124 164 172 278l254 -43q-34 -82 -125.5 -165t-184.5 -130zM547 268q48 -26 117 -26q132 0 204 91.5t72 229.5q0 113 -53 193z" />
<glyph horiz-adv-x="1329" d="M68 563q0 120 40.5 226t115.5 185.5t188.5 126t251.5 46.5q139 0 253 -46.5t189 -126t115.5 -185.5t40.5 -226q0 -122 -40.5 -228.5t-115.5 -186.5t-189 -126.5t-253 -46.5q-138 0 -251.5 46.5t-188.5 126.5t-115.5 186.5t-40.5 228.5zM276 1268q36 88 104 145t155 57 q59 0 146 -39.5t126 -39.5t79 22.5t72 63.5l111 -76q-38 -89 -105.5 -146t-152.5 -57q-60 0 -147.5 40t-124.5 40q-40 0 -81 -22.5t-71 -63.5zM391 563q0 -89 30 -160.5t93 -116t150 -44.5q132 0 204 91.5t72 229.5q0 135 -72 226.5t-204 91.5q-129 0 -201 -91.5t-72 -226.5 z" />
<glyph horiz-adv-x="1247" d="M135 0v1120h594q209 0 321.5 -102t112.5 -266q0 -228 -217 -332l240 -420h-344l-197 367h-196v-367h-314zM449 602h258q64 0 102.5 35t38.5 100q0 64 -38 98.5t-103 34.5h-258v-268zM473 1227q124 164 172 278l254 -43q-35 -82 -125.5 -165t-183.5 -130z" />
<glyph horiz-adv-x="1247" d="M135 0v1120h594q209 0 321.5 -102t112.5 -266q0 -228 -217 -332l240 -420h-344l-197 367h-196v-367h-314zM236 1386l71 115q80 -17 163 -54.5t142 -82.5q59 44 142 82t164 55l71 -115q-165 -107 -266 -198h-221q-101 91 -266 198zM449 602h258q64 0 102.5 35t38.5 100 q0 64 -38 98.5t-103 34.5h-258v-268z" />
<glyph horiz-adv-x="1249" d="M137 0v1120h594q209 0 321.5 -102t112.5 -266q0 -228 -217 -332l240 -420h-344l-197 367h-196v-367h-314zM373 -352q118 166 157 272l258 -29q-33 -84 -121 -168t-178 -133zM451 602h258q64 0 102.5 35t38.5 100q0 64 -38 98.5t-103 34.5h-258v-268z" />
<glyph horiz-adv-x="1167" d="M35 256l227 125q54 -89 148 -129.5t196 -40.5q77 0 129.5 26.5t52.5 75.5q0 31 -14.5 51.5t-62 35.5t-75.5 21t-116 20q-3 1 -4 1q-94 15 -165 39.5t-128.5 64t-88 101t-30.5 141.5q0 114 63 196.5t167 121.5t237 39q326 0 514 -240l-208 -133q-52 68 -132.5 102.5 t-166.5 34.5q-73 0 -119.5 -23t-46.5 -73q0 -17 6.5 -30.5t24 -24t32 -17t48.5 -14t53 -11t65 -11.5q69 -12 121 -24t108 -31t95 -44.5t72 -60t49 -82t16 -105.5q0 -170 -137 -276.5t-377 -106.5q-381 0 -553 281zM197 1286q161 104 266 199h221q105 -95 266 -199l-71 -115 q-80 17 -163 55t-143 83q-60 -45 -142.5 -83t-162.5 -55z" />
<glyph horiz-adv-x="1167" d="M35 256l227 125q54 -89 148 -129.5t196 -40.5q77 0 129.5 26.5t52.5 75.5q0 31 -14.5 51.5t-62 35.5t-75.5 21t-116 20q-3 1 -4 1q-94 15 -165 39.5t-128.5 64t-88 101t-30.5 141.5q0 114 63 196.5t167 121.5t237 39q326 0 514 -240l-208 -133q-52 68 -132.5 102.5 t-166.5 34.5q-73 0 -119.5 -23t-46.5 -73q0 -17 6.5 -30.5t24 -24t32 -17t48.5 -14t53 -11t65 -11.5q69 -12 121 -24t108 -31t95 -44.5t72 -60t49 -82t16 -105.5q0 -170 -137 -276.5t-377 -106.5q-381 0 -553 281zM449 1227q119 162 161 278l256 -43q-36 -83 -123.5 -165 t-177.5 -130z" />
<glyph horiz-adv-x="1167" d="M35 256l227 125q54 -89 148 -129.5t196 -40.5q77 0 129.5 26.5t52.5 75.5q0 31 -14.5 51.5t-62 35.5t-75.5 21t-116 20q-3 1 -4 1q-94 15 -165 39.5t-128.5 64t-88 101t-30.5 141.5q0 114 63 196.5t167 121.5t237 39q326 0 514 -240l-208 -133q-52 68 -132.5 102.5 t-166.5 34.5q-73 0 -119.5 -23t-46.5 -73q0 -17 6.5 -30.5t24 -24t32 -17t48.5 -14t53 -11t65 -11.5q69 -12 121 -24t108 -31t95 -44.5t72 -60t49 -82t16 -105.5q0 -170 -137 -276.5t-377 -106.5q-381 0 -553 281zM190 1386l72 115q80 -17 163 -54.5t142 -82.5 q59 45 142 82.5t163 54.5l72 -115q-165 -107 -266 -198h-221q-99 89 -267 198z" />
<glyph horiz-adv-x="1169" d="M35 256l227 125q54 -89 148 -129.5t196 -40.5q77 0 129.5 26.5t52.5 75.5q0 31 -14.5 51.5t-62 35.5t-75.5 21t-116 20q-3 1 -4 1q-94 15 -165 39.5t-128.5 64t-88 101t-30.5 141.5q0 114 63 196.5t167 121.5t237 39q326 0 514 -240l-208 -133q-52 68 -132.5 102.5 t-166.5 34.5q-73 0 -119.5 -23t-46.5 -73q0 -17 6.5 -30.5t24 -24t32 -17t48.5 -14t53 -11t65 -11.5q69 -12 121 -24t108 -31t95 -44.5t72 -60t49 -82t16 -105.5q0 -155 -113.5 -257.5t-316.5 -120.5q69 -69 69 -150q0 -85 -75 -141t-191 -56q-63 0 -114.5 16.5t-77.5 39.5 v190q73 -69 163 -69q49 0 79 20.5t30 60.5q0 46 -43 89q-324 25 -477 276z" />
<glyph horiz-adv-x="1167" d="M35 256l227 125q54 -89 148 -129.5t196 -40.5q77 0 129.5 26.5t52.5 75.5q0 31 -14.5 51.5t-62 35.5t-75.5 21t-116 20q-3 1 -4 1q-94 15 -165 39.5t-128.5 64t-88 101t-30.5 141.5q0 114 63 196.5t167 121.5t237 39q326 0 514 -240l-208 -133q-52 68 -132.5 102.5 t-166.5 34.5q-73 0 -119.5 -23t-46.5 -73q0 -17 6.5 -30.5t24 -24t32 -17t48.5 -14t53 -11t65 -11.5q69 -12 121 -24t108 -31t95 -44.5t72 -60t49 -82t16 -105.5q0 -170 -137 -276.5t-377 -106.5q-381 0 -553 281zM301 -352q120 168 158 272l258 -29q-33 -84 -121 -168 t-178 -133z" />
<glyph horiz-adv-x="1134" d="M57 858v262h1020v-262h-354v-858h-313v858h-353zM188 1386l72 115q80 -17 163 -54.5t142 -82.5q59 45 142 82.5t163 54.5l72 -115q-165 -107 -266 -198h-221q-99 89 -267 198z" />
<glyph horiz-adv-x="1134" d="M57 858v262h1020v-262h-354v-858h-313v858h-353zM287 -352q118 166 157 272l258 -29q-33 -84 -121 -168t-178 -133z" />
<glyph horiz-adv-x="1130" d="M55 858v262h1020v-262h-356v-254h188v-166h-188v-438h-309v438h-185v166h185v254h-355z" />
<glyph horiz-adv-x="1202" d="M135 0v1120h316v-127h268q196 0 314 -108t118 -289q0 -178 -118.5 -285.5t-313.5 -107.5h-268v-203h-316zM451 463h268q53 0 89 35.5t36 97.5q0 65 -35.5 100t-89.5 35h-268v-268z" />
<glyph horiz-adv-x="1288" d="M125 438v682h313v-682q0 -198 207 -198q99 0 152 49.5t53 148.5v682h313v-682q0 -223 -140 -343t-378 -120q-240 0 -380 120t-140 343zM524 1227q124 164 172 278l254 -43q-35 -82 -125.5 -165t-183.5 -130z" />
<glyph horiz-adv-x="1288" d="M125 438v682h313v-682q0 -198 207 -198q99 0 152 49.5t53 148.5v682h313v-682q0 -223 -140 -343t-378 -120q-240 0 -380 120t-140 343zM279 1440l147 43q53 -116 217 -119q165 0 217 119l148 -43q-23 -112 -117.5 -183t-247.5 -71t-247 71t-117 183z" />
<glyph horiz-adv-x="1288" d="M125 438v682h313v-682q0 -198 207 -198q99 0 152 49.5t53 148.5v682h313v-682q0 -223 -140 -343t-378 -120q-240 0 -380 120t-140 343zM266 1286q161 104 266 199h222q105 -95 266 -199l-72 -115q-80 17 -162.5 55t-142.5 83q-60 -45 -142.5 -83t-162.5 -55z" />
<glyph horiz-adv-x="1288" d="M125 438v682h313v-682q0 -198 207 -198q99 0 152 49.5t53 148.5v682h313v-682q0 -223 -140 -343t-378 -120q-240 0 -380 120t-140 343zM297 1204v234h229v-234h-229zM762 1204v234h227v-234h-227z" />
<glyph horiz-adv-x="1288" d="M125 438v682h313v-682q0 -198 207 -198q99 0 152 49.5t53 148.5v682h313v-682q0 -223 -140 -343t-378 -120q-240 0 -380 120t-140 343zM356 1462l256 43q40 -100 170 -278l-116 -60q-92 47 -183 130t-127 165z" />
<glyph horiz-adv-x="1288" d="M125 438v682h313v-682q0 -198 207 -198q99 0 152 49.5t53 148.5v682h313v-682q0 -223 -140 -343t-378 -120q-240 0 -380 120t-140 343zM346 1227q125 171 170 278l236 -43q-34 -82 -125 -165t-183 -130zM721 1227q125 171 170 278l235 -43q-34 -82 -124.5 -165 t-182.5 -130z" />
<glyph horiz-adv-x="1288" d="M125 438v682h313v-682q0 -198 207 -198q99 0 152 49.5t53 148.5v682h313v-682q0 -223 -140 -343t-378 -120q-240 0 -380 120t-140 343zM303 1214v170h680v-170h-680z" />
<glyph horiz-adv-x="1286" d="M123 438v682h313v-682q0 -198 205 -198q100 0 153.5 49.5t53.5 148.5v682h313v-682q0 -145 -54.5 -237.5t-164.5 -157.5q-31 -18 -46 -28t-37 -29t-32 -39.5t-10 -44.5q0 -41 30.5 -63.5t78.5 -22.5q82 0 151 73v-194q-64 -60 -186 -60q-111 0 -185.5 55t-74.5 140 q0 83 80 150q-29 -5 -68 -5q-240 0 -380 120t-140 343z" />
<glyph horiz-adv-x="1288" d="M125 438v682h313v-682q0 -198 207 -198q99 0 152 49.5t53 148.5v682h313v-682q0 -223 -140 -343t-378 -120q-240 0 -380 120t-140 343zM387 1380q0 93 71.5 157.5t182.5 64.5t182.5 -64.5t71.5 -157.5q0 -92 -71.5 -155.5t-182.5 -63.5t-182.5 63.5t-71.5 155.5z M539 1378q0 -41 30.5 -71.5t71.5 -30.5q43 0 73.5 30.5t30.5 71.5q0 43 -30.5 74t-73.5 31q-41 0 -71.5 -31t-30.5 -74z" />
<glyph horiz-adv-x="1288" d="M125 438v682h313v-682q0 -198 207 -198q99 0 152 49.5t53 148.5v682h313v-682q0 -223 -140 -343t-378 -120q-240 0 -380 120t-140 343zM248 1268q36 89 103.5 145.5t154.5 56.5q59 0 146 -39.5t126 -39.5t79.5 22.5t72.5 63.5l110 -76q-38 -89 -105.5 -146t-152.5 -57 q-60 0 -147.5 40t-124.5 40q-40 0 -81 -22.5t-71 -63.5z" />
<glyph horiz-adv-x="1726" d="M41 1120h340l156 -723l200 723h254l201 -731l156 731h344l-322 -1120h-328l-182 686l-180 -686h-328zM735 1227q124 164 172 278l254 -43q-35 -82 -125.5 -165t-183.5 -130z" />
<glyph horiz-adv-x="1726" d="M41 1120h340l156 -723l200 723h254l201 -731l156 731h344l-322 -1120h-328l-182 686l-180 -686h-328zM487 1286q164 107 267 199h221q105 -95 266 -199l-72 -115q-80 17 -162.5 55t-142.5 83q-60 -45 -142.5 -83t-162.5 -55z" />
<glyph horiz-adv-x="1726" d="M41 1120h340l156 -723l200 723h254l201 -731l156 731h344l-322 -1120h-328l-182 686l-180 -686h-328zM518 1204v234h230v-234h-230zM983 1204v234h227v-234h-227z" />
<glyph horiz-adv-x="1726" d="M41 1120h340l156 -723l200 723h254l201 -731l156 731h344l-322 -1120h-328l-182 686l-180 -686h-328zM580 1462l256 43q40 -100 170 -278l-117 -60q-91 47 -182 130t-127 165z" />
<glyph horiz-adv-x="1259" d="M104 -260l115 231q137 -86 318 -86q132 0 206 55t74 162v113q-134 -147 -328 -147q-179 0 -273.5 109.5t-94.5 283.5v633h313v-562q0 -186 170 -186q92 0 152.5 57t60.5 158v533h313v-916q0 -271 -135 -403q-155 -152 -452 -152q-123 0 -237.5 30.5t-201.5 86.5z M512 1227q124 164 172 278l254 -43q-35 -82 -125.5 -165t-183.5 -130z" />
<glyph horiz-adv-x="1218" d="M2 1120h365l245 -407l246 407h361l-453 -680v-440h-313v436zM473 1227q124 164 172 278l254 -43q-35 -82 -125.5 -165t-183.5 -130z" />
<glyph horiz-adv-x="1259" d="M104 -260l115 231q137 -86 318 -86q132 0 206 55t74 162v113q-134 -147 -328 -147q-179 0 -273.5 109.5t-94.5 283.5v633h313v-562q0 -186 170 -186q92 0 152.5 57t60.5 158v533h313v-916q0 -271 -135 -403q-155 -152 -452 -152q-123 0 -237.5 30.5t-201.5 86.5z M248 1286q161 104 266 199h221q105 -95 266 -199l-71 -115q-80 17 -162.5 55t-142.5 83q-60 -45 -143 -83t-163 -55z" />
<glyph horiz-adv-x="1218" d="M2 1120h365l245 -407l246 407h361l-453 -680v-440h-313v436zM231 1286q164 107 267 199h221q105 -95 266 -199l-72 -115q-80 17 -162.5 55t-142.5 83q-60 -45 -142.5 -83t-162.5 -55z" />
<glyph horiz-adv-x="1259" d="M104 -260l115 231q137 -86 318 -86q132 0 206 55t74 162v113q-134 -147 -328 -147q-179 0 -273.5 109.5t-94.5 283.5v633h313v-562q0 -186 170 -186q92 0 152.5 57t60.5 158v533h313v-916q0 -271 -135 -403q-155 -152 -452 -152q-123 0 -237.5 30.5t-201.5 86.5z M279 1204v234h229v-234h-229zM743 1204v234h228v-234h-228z" />
<glyph horiz-adv-x="1218" d="M2 1120h365l245 -407l246 407h361l-453 -680v-440h-313v436zM262 1204v234h230v-234h-230zM727 1204v234h227v-234h-227z" />
<glyph horiz-adv-x="1259" d="M104 -260l115 231q137 -86 318 -86q132 0 206 55t74 162v113q-134 -147 -328 -147q-179 0 -273.5 109.5t-94.5 283.5v633h313v-562q0 -186 170 -186q92 0 152.5 57t60.5 158v533h313v-916q0 -271 -135 -403q-155 -152 -452 -152q-123 0 -237.5 30.5t-201.5 86.5z M338 1462l256 43q40 -100 170 -278l-117 -60q-91 47 -182 130t-127 165z" />
<glyph horiz-adv-x="1218" d="M2 1120h365l245 -407l246 407h361l-453 -680v-440h-313v436zM330 1462l256 43q40 -100 170 -278l-117 -60q-91 47 -182 130t-127 165z" />
<glyph horiz-adv-x="1157" d="M76 0v217l551 641h-529v262h963v-209l-561 -651h577v-260h-1001zM451 1227q119 162 161 278l256 -43q-36 -83 -123.5 -165t-177.5 -130z" />
<glyph horiz-adv-x="1157" d="M76 0v217l551 641h-529v262h963v-209l-561 -651h577v-260h-1001zM190 1386l72 115q80 -17 163 -54.5t142 -82.5q59 45 142 82.5t163 54.5l72 -115q-165 -107 -266 -198h-221q-99 89 -267 198z" />
<glyph horiz-adv-x="1157" d="M76 0v217l551 641h-529v262h963v-209l-561 -651h577v-260h-1001zM444 1212v226h246v-226h-246z" />
<glyph horiz-adv-x="1456" d="M39 856v238h170v45q0 157 102 251.5t293 94.5q113 0 195 -23l-33 -239q-69 22 -125 22q-61 0 -90 -22.5t-29 -75.5v-53h228v-238h-228v-856h-313v856h-170zM918 326v1136h313v-1143q0 -53 21.5 -72.5t60.5 -19.5q55 0 96 23l51 -225q-82 -45 -217 -45q-194 0 -274 110 q-30 43 -40.5 95.5t-10.5 140.5z" />
<glyph d="M209 1192q160 27 265 67.5t173 104.5h242v-1364h-322v1020q-149 -54 -319 -72z" />
<glyph horiz-adv-x="1261" d="M86 684q0 109 17 208t57.5 191t101.5 159t155 107t212 40t212.5 -40t156 -107t102.5 -159t58.5 -191t17.5 -208q0 -110 -17.5 -210t-58.5 -192.5t-102.5 -159.5t-156 -107t-212.5 -40t-212 40t-155 107t-101.5 160t-57.5 192t-17 210zM412 684q0 -448 217 -448t217 448 q0 442 -217 442q-63 0 -107.5 -35t-67.5 -100t-32.5 -138.5t-9.5 -168.5z" />
<glyph horiz-adv-x="866" d="M31 1192q158 27 263 67.5t175 104.5h242v-1364h-324v1022q-132 -52 -317 -72z" />
<glyph horiz-adv-x="1218" d="M57 1071q191 318 535 318q221 0 359.5 -119t138.5 -324q0 -163 -124.5 -323.5t-390.5 -331.5h564v-291h-1041v233q378 283 514 426t136 269q0 83 -52.5 130.5t-134.5 47.5q-77 0 -142 -45.5t-106 -130.5z" />
<glyph horiz-adv-x="1245" d="M53 326l269 123q39 -95 116.5 -147t184.5 -52q101 0 154.5 44.5t53.5 119.5q0 74 -56.5 112.5t-166.5 38.5h-121v256h119q96 0 144.5 42.5t48.5 109.5t-49 103t-136 36q-94 0 -169 -45.5t-117 -130.5l-244 139q195 314 555 314q216 0 348.5 -104.5t132.5 -270.5 q0 -101 -51 -175.5t-139 -117.5q108 -38 170.5 -123t62.5 -195q0 -86 -36.5 -163t-104 -136t-171.5 -94t-230 -35q-208 0 -349.5 92.5t-218.5 258.5z" />
<glyph horiz-adv-x="1251" d="M70 276v238q113 212 177 443t64 407h314q0 -174 -66.5 -390.5t-185.5 -430.5h336v528h313v-528h178v-267h-178v-276h-322v276h-630z" />
<glyph horiz-adv-x="1206" d="M53 268l260 142q81 -154 265 -154q96 0 160.5 56t64.5 149q0 92 -62.5 148.5t-169.5 56.5q-153 0 -247 -117l-191 78l49 737h877v-293h-623l-26 -229q93 67 249 67q201 0 336 -119.5t135 -324.5q0 -75 -20.5 -145.5t-64.5 -133.5t-106.5 -109.5t-153 -74t-197.5 -27.5 q-362 0 -535 293z" />
<glyph horiz-adv-x="1212" d="M84 508q0 124 32.5 243t93.5 225.5t135.5 199.5t172.5 188h453q-340 -250 -459 -479q71 61 213 61q192 0 315 -125.5t123 -335.5q0 -229 -147.5 -369.5t-390.5 -140.5q-250 0 -395.5 139t-145.5 394zM418 479q0 -105 53.5 -168t153.5 -63q98 0 150 63.5t52 169.5 t-51.5 167t-150.5 61q-100 0 -153.5 -63t-53.5 -167z" />
<glyph horiz-adv-x="1132" d="M41 1071v293h1055v-225q-48 -66 -69.5 -96.5t-77 -111t-87 -136t-80 -142t-77.5 -160t-58 -159t-42 -170t-11 -164.5h-363q3 131 40 271t88.5 253.5t119.5 225t123.5 186t110.5 135.5h-672z" />
<glyph horiz-adv-x="1255" d="M82 391q0 117 60 204.5t165 129.5q-77 40 -127.5 113.5t-50.5 179.5q0 119 69.5 204.5t180.5 126t248 40.5t248 -40.5t181 -126t70 -204.5q0 -104 -50 -178.5t-130 -114.5q107 -42 167.5 -129.5t60.5 -204.5q0 -181 -144.5 -298.5t-402.5 -117.5q-129 0 -233.5 32.5 t-172 89t-103.5 132t-36 162.5zM414 412q0 -90 59 -137.5t154 -47.5q96 0 154.5 47.5t58.5 139.5q0 89 -57 136.5t-154 47.5q-99 0 -157 -48t-58 -138zM457 985q0 -80 48 -115.5t122 -35.5q75 0 123.5 35.5t48.5 115.5q0 78 -49 116t-123 38t-122 -38t-48 -116z" />
<glyph horiz-adv-x="1216" d="M51 879q0 228 149 369t392 141q250 0 395.5 -139t145.5 -394q0 -125 -32.5 -243.5t-94.5 -225.5t-136 -199t-172 -188h-454q335 244 461 477q-77 -61 -216 -61q-192 0 -315 126.5t-123 336.5zM387 883q0 -105 53 -166.5t152 -61.5q100 0 153.5 63t53.5 167 q0 105 -53.5 168t-153.5 63q-99 0 -152 -63.5t-53 -169.5z" />
<glyph horiz-adv-x="839" d="M102 543v278h635v-278h-635z" />
<glyph d="M82 551v260h1063v-260h-1063z" />
<glyph horiz-adv-x="1863" d="M104 551v260h1655v-260h-1655z" />
<glyph horiz-adv-x="610" d="M70 682q0 417 325 795l174 -113q-133 -183 -186 -346t-53 -336t53 -336t186 -346l-174 -113q-325 378 -325 795z" />
<glyph horiz-adv-x="612" d="M43 0q133 182 185.5 345t52.5 337q0 173 -52.5 336.5t-185.5 345.5l172 113q328 -378 328 -795t-328 -795z" />
<glyph horiz-adv-x="696" d="M135 -74v1512h514v-197h-252v-1118h252v-197h-514z" />
<glyph horiz-adv-x="696" d="M47 -74v197h252v1118h-252v197h514v-1512h-514z" />
<glyph horiz-adv-x="829" d="M33 584v196h98q79 0 110 41t31 115v168q0 161 93.5 250.5t248.5 89.5h172v-197h-94q-157 0 -157 -162v-118q0 -223 -195 -285q195 -62 195 -283v-120q0 -162 157 -162h94v-197h-172q-155 0 -248.5 89.5t-93.5 250.5v168q0 74 -31 115t-110 41h-98z" />
<glyph horiz-adv-x="829" d="M43 -80v197h94q85 0 121.5 42t36.5 120v118q0 219 194 285q-194 63 -194 283v120q0 78 -36.5 120t-121.5 42h-94v197h174q155 0 247.5 -89.5t92.5 -250.5v-168q0 -74 32 -115t111 -41h97v-196h-97q-79 0 -111 -41.5t-32 -114.5v-168q0 -161 -92.5 -250.5t-247.5 -89.5 h-174z" />
<glyph horiz-adv-x="1564" d="M63 682q0 117 36.5 227t103 198t155 154.5t198 103t226.5 36.5t226.5 -36.5t198 -103t155 -154.5t103 -198t36.5 -227q0 -116 -36.5 -226t-103 -198.5t-155 -155t-198.5 -103t-226 -36.5t-226 36.5t-198.5 103t-155 155t-103 198.5t-36.5 226zM211 682 q0 -155 76.5 -286.5t208 -208t286.5 -76.5t287 76.5t209.5 208t77.5 286.5q0 156 -77.5 287.5t-209.5 207.5t-287 76q-154 0 -285.5 -76t-208.5 -207.5t-77 -287.5zM449 287v798h366q160 0 242 -72t82 -192q0 -156 -138 -225l150 -309h-246l-102 258h-117v-258h-237z M686 715h121q42 0 65 25.5t23 70.5t-23 71.5t-65 26.5h-121v-194z" />
<glyph horiz-adv-x="1325" d="M66 559q0 122 47 232.5t127 190.5t190 127.5t232 47.5t232.5 -47.5t190.5 -127.5t127.5 -190.5t47.5 -232.5q0 -161 -80 -298.5t-218 -217.5t-300 -80t-299.5 80t-217 217.5t-79.5 298.5zM178 559q0 -131 65 -242t176.5 -176t242.5 -65t242.5 65t177 176t65.5 242 q0 132 -65.5 243.5t-177 176.5t-242.5 65t-242.5 -65t-176.5 -176.5t-65 -243.5zM303 559q0 151 105 256t254 105q202 0 323 -195l-160 -107q-61 107 -159 107q-69 0 -116.5 -48.5t-47.5 -117.5q0 -68 48 -118t116 -50q98 0 159 111l162 -107q-57 -96 -142 -145t-183 -49 q-149 0 -254 104.5t-105 253.5z" />
<glyph horiz-adv-x="1325" d="M66 559q0 122 47 232.5t127 190.5t190 127.5t232 47.5t232.5 -47.5t190.5 -127.5t127.5 -190.5t47.5 -232.5q0 -161 -80 -298.5t-218 -217.5t-300 -80t-299.5 80t-217 217.5t-79.5 298.5zM178 559q0 -131 65 -242t176.5 -176t242.5 -65t242.5 65t177 176t65.5 242 q0 132 -65.5 243.5t-177 176.5t-242.5 65t-242.5 -65t-176.5 -176.5t-65 -243.5zM408 229v664h315q127 0 193.5 -66t66.5 -168q0 -99 -67 -164t-199 -65h-109v-201h-200zM608 573h78q47 0 71.5 22t24.5 62q0 88 -96 88h-78v-172z" />
<glyph horiz-adv-x="761" d="M72 846q0 129 90 219t219 90q128 0 218.5 -90t90.5 -219t-90.5 -220t-218.5 -91q-129 0 -219 91t-90 220zM121 846q0 -107 76.5 -183.5t183.5 -76.5t182.5 76.5t75.5 183.5t-75.5 182.5t-182.5 75.5t-183.5 -75.5t-76.5 -182.5zM240 674v344h168q62 0 96.5 -30.5 t34.5 -82.5q0 -36 -16.5 -60t-41.5 -34l62 -137h-107l-43 112h-57v-112h-96zM336 860h63q37 0 37 39q0 43 -37 43h-63v-82z" />
<glyph horiz-adv-x="1566" d="M51 678q0 150 53 280.5t148.5 225.5t236.5 150t310 55q163 0 300.5 -54t231 -149t145.5 -224.5t52 -279.5q0 -178 -89.5 -286.5t-242.5 -108.5q-165 0 -227 114q-81 -116 -240 -116q-152 0 -243 110t-91 279q0 170 92 279.5t244 109.5q103 0 182 -82v68h230v-519 q0 -50 21.5 -82t70.5 -32q71 0 109 73.5t38 188.5q0 172 -66 303t-198 206t-315 75q-135 0 -246.5 -46.5t-184.5 -126.5t-113 -186t-40 -225q0 -162 68.5 -293.5t203 -210t312.5 -78.5q183 0 307 88l57 -116q-162 -101 -370 -101q-168 0 -308.5 54t-236 149t-148.5 226 t-53 282zM631 672q0 -85 36 -142t103 -57q70 0 106.5 56t36.5 143t-37 144.5t-106 57.5q-67 0 -103 -57.5t-36 -144.5z" />
<glyph horiz-adv-x="2111" d="M92 1255q207 33 297 109h176v-881h-237v631q-107 -28 -207 -39zM436 0l920 1364h231l-919 -1364h-232zM1251 678q64 101 156.5 160t210.5 59q153 0 247.5 -78.5t94.5 -214.5q0 -99 -68.5 -191.5t-228.5 -203.5h330v-209h-709v170q247 175 336.5 262.5t89.5 159.5 q0 45 -32 71.5t-81 26.5q-47 0 -88.5 -29t-68.5 -83z" />
<glyph horiz-adv-x="2111" d="M96 1255q207 33 297 109h176v-881h-237v631q-107 -28 -207 -39zM440 0l920 1364h231l-919 -1364h-232zM1241 229l199 62q50 -103 190 -103q54 0 85.5 23t31.5 61q0 35 -31 54.5t-82 19.5h-116v195h112q36 0 66 19t30 54q0 37 -32 57.5t-76 20.5q-125 0 -180 -96l-183 82 q65 113 157 166t216 53q141 0 237.5 -67.5t96.5 -192.5q0 -118 -94 -176q61 -26 91 -80.5t30 -116.5q0 -121 -98.5 -200.5t-262.5 -79.5q-287 0 -387 245z" />
<glyph horiz-adv-x="2111" d="M98 1255q207 33 297 109h176v-881h-237v631q-107 -28 -207 -39zM442 0l920 1364h231l-919 -1364h-232zM1229 172v168q69 126 112.5 275t44.5 266h232q-3 -232 -152 -514h191v303h223v-303h117v-195h-117v-172h-227v172h-424z" />
<glyph horiz-adv-x="2111" d="M92 1255q207 33 297 109h176v-881h-237v631q-107 -28 -207 -39zM436 0l920 1364h231l-919 -1364h-232zM1255 154l168 114q69 -80 191 -80q54 0 93.5 30.5t39.5 82.5t-37.5 82.5t-105.5 30.5q-93 0 -158 -74l-137 53l30 488h600v-213h-409q-2 -42 -21 -133q64 45 162 45 q141 0 229.5 -75t88.5 -216q0 -55 -22.5 -107.5t-65.5 -97.5t-116 -72.5t-165 -27.5q-224 0 -365 170z" />
<glyph horiz-adv-x="2111" d="M113 1255q207 33 297 109h176v-881h-238v631q-107 -28 -207 -39zM457 0l919 1364h232l-920 -1364h-231zM1249 334q0 289 281 547h330q-119 -81 -190.5 -149t-113.5 -148q47 37 127 37q133 0 217.5 -83.5t84.5 -222.5q0 -148 -101 -239.5t-264 -91.5q-172 0 -271.5 91 t-99.5 259zM1491 311q0 -60 33.5 -96.5t95.5 -36.5q59 0 92 37t33 98q0 62 -33 99t-92 37q-61 0 -95 -38t-34 -100z" />
<glyph horiz-adv-x="2111" d="M96 1255q207 33 297 109h176v-881h-237v631q-107 -28 -207 -39zM440 0l920 1364h231l-919 -1364h-232zM1249 254q0 65 30.5 120.5t94.5 88.5q-96 62 -96 180q0 122 90 188t250 66q162 0 251 -66t89 -188q0 -114 -100 -178q129 -65 129 -211q0 -128 -98.5 -199t-270.5 -71 t-270.5 71t-98.5 199zM1485 266q0 -55 38 -82.5t95 -27.5t95 27t38 81q0 57 -38 86t-95 29t-95 -29t-38 -84zM1511 635q0 -49 30.5 -72.5t74.5 -23.5q46 0 77 23.5t31 72.5q0 44 -31 66t-75 22q-45 0 -76 -22t-31 -66z" />
<glyph horiz-adv-x="604" d="M8 1446q208 34 297 108h176v-880h-237v631q-107 -28 -207 -39z" />
<glyph horiz-adv-x="604" d="M8 580q210 37 297 110h176v-880h-237v630q-86 -26 -207 -39z" />
<glyph horiz-adv-x="563" d="M88 682q0 80 58 137.5t137 57.5t135.5 -57.5t56.5 -137.5q0 -79 -56.5 -137t-135.5 -58t-137 58.5t-58 136.5z" />
<glyph horiz-adv-x="688" d="M8 0l420 1364h254l-420 -1364h-254z" />
<glyph horiz-adv-x="507" d="M133 -98v1560h242v-1560h-242z" />
<glyph horiz-adv-x="688" d="M6 1364h254l420 -1364h-254z" />
<glyph horiz-adv-x="606" d="M135 0v332l86 573h164l86 -573v-332h-336zM135 1057v307h336v-307h-336z" />
<glyph horiz-adv-x="1040" d="M43 412q0 92 33 169t90.5 131t126.5 91.5t151 60.5v43h316v-309q-49 14 -119 14q-120 0 -192 -47.5t-72 -140.5q0 -83 58 -128.5t149 -45.5q176 0 293 123l174 -207q-212 -191 -504 -191q-224 0 -364 117t-140 320zM428 1061v303h340v-303h-340z" />
<glyph d="M82 551v260h401v401h260v-401h402v-260h-402v-399h-260v399h-401z" />
<glyph d="M82 551v260h1063v-260h-1063z" />
<glyph d="M82 551v260h1063v-260h-1063zM436 268q0 74 52 126t126 52q72 0 124.5 -52.5t52.5 -125.5q0 -72 -52.5 -124t-124.5 -52q-73 0 -125.5 52t-52.5 124zM436 1094q0 74 52 126t126 52q72 0 124.5 -52.5t52.5 -125.5q0 -72 -52.5 -124t-124.5 -52q-73 0 -125.5 52t-52.5 124z " />
<glyph d="M82 334v260h1063v-260h-1063zM82 770v260h1063v-260h-1063z" />
<glyph d="M78 330l352 352l-352 352l182 185l354 -353l353 353l182 -185l-350 -352l350 -352l-182 -185l-353 353l-354 -353z" />
<glyph d="M188 682l627 627l182 -183l-442 -444l442 -442l-182 -183z" />
<glyph d="M231 240l445 442l-445 444l181 183l626 -627l-626 -625z" />
<glyph horiz-adv-x="1308" d="M59 559q0 163 71.5 295.5t208 211.5t314.5 79t315 -79t209 -212t72 -295t-72 -294.5t-209 -211t-315 -78.5t-314.5 78.5t-208 211t-71.5 294.5zM360 559q0 -132 78 -218.5t215 -86.5t215 86.5t78 218.5t-78 219.5t-215 87.5t-215 -87.5t-78 -219.5z" />
<glyph horiz-adv-x="847" d="M31 952q156 26 260 66t176 102h233v-1120h-309v786q-157 -59 -321 -77z" />
<glyph horiz-adv-x="1183" d="M37 874q102 131 228.5 201t297.5 70q212 0 346.5 -103t134.5 -282q0 -79 -28.5 -148t-84.5 -127t-117.5 -102.5t-149.5 -95.5h462v-287h-1032v229q115 56 172.5 85t143.5 75.5t128.5 78.5t88.5 73.5t64 81.5t18 84q0 73 -51.5 117t-133.5 44q-83 0 -150.5 -47 t-111.5 -119z" />
<glyph horiz-adv-x="1179" d="M20 47l246 141q54 -97 136.5 -141.5t179.5 -44.5q108 0 165.5 49t57.5 127q0 74 -60.5 116t-175.5 42h-112v250h110q98 0 150.5 39.5t52.5 107.5q0 65 -53.5 101t-138.5 36q-92 0 -166.5 -41.5t-120.5 -126.5l-238 134q185 309 537 309q133 0 241.5 -42t177 -130 t68.5 -209q0 -193 -196 -287q110 -39 174.5 -123.5t64.5 -195.5q0 -185 -143 -306.5t-389 -121.5q-393 0 -568 317z" />
<glyph d="M63 31v233q108 211 175 448.5t69 407.5h301q-3 -174 -69 -394.5t-181 -434.5h349v489h301v-489h178v-260h-178v-277h-310v277h-635z" />
<glyph horiz-adv-x="1142" d="M20 18l248 144q80 -158 271 -158q100 0 166.5 56.5t66.5 152.5q0 95 -64 152t-176 57q-159 0 -247 -111l-187 72l52 737h866v-289h-627l-27 -247q110 75 259 75q130 0 234.5 -50.5t168 -152.5t63.5 -239q0 -94 -33.5 -179.5t-97.5 -155t-169.5 -111t-237.5 -41.5 q-356 0 -529 288z" />
<glyph horiz-adv-x="1155" d="M51 514q0 166 63 324.5t199.5 308t333.5 258.5l225 -199q-85 -42 -171 -101.5t-161.5 -137t-99.5 -144.5q47 50 117.5 72.5t142.5 22.5q181 0 301.5 -122t120.5 -321q0 -220 -148 -360t-392 -140q-241 0 -386 142.5t-145 396.5zM373 463q0 -100 55.5 -159.5t159.5 -59.5 t158.5 59.5t54.5 161.5q0 101 -54 159t-159 58q-104 0 -159.5 -59.5t-55.5 -159.5z" />
<glyph horiz-adv-x="1126" d="M45 831v289h1045v-223q-87 -124 -142 -205.5t-133 -215.5t-123 -240t-77 -236t-29 -246h-348q2 93 21.5 190.5t47 180t71.5 173t81.5 156t91.5 145t87 124.5t81 108h-674z" />
<glyph horiz-adv-x="1212" d="M68 383q0 108 55 198.5t176 141.5q-81 41 -133.5 114t-52.5 175q0 177 136 277t357 100t357.5 -100t136.5 -277q0 -102 -51.5 -174.5t-135.5 -114.5q121 -51 176.5 -141.5t55.5 -198.5q0 -189 -147 -298.5t-392 -109.5q-246 0 -392 109.5t-146 298.5zM385 408 q0 -95 60.5 -143t160.5 -48t159.5 47.5t59.5 143.5q0 97 -58.5 145.5t-160.5 48.5t-161.5 -48.5t-59.5 -145.5zM426 987q0 -81 49.5 -122.5t128.5 -41.5q81 0 132.5 41.5t51.5 122.5q0 76 -51.5 118t-130.5 42q-80 0 -130 -41.5t-50 -118.5z" />
<glyph horiz-adv-x="1150" d="M31 645q0 219 148 359.5t392 140.5q241 0 386 -142.5t145 -396.5q0 -166 -63 -324.5t-199.5 -308t-333.5 -258.5l-225 199q85 42 171 101.5t161.5 137t99.5 144.5q-89 -94 -260 -94q-181 0 -301.5 121t-120.5 321zM352 655q0 -101 54 -159t159 -58q104 0 159.5 59.5 t55.5 159.5t-55.5 160t-159.5 60t-158.5 -60.5t-54.5 -161.5z" />
<glyph d="M76 561q0 122 32.5 226t96 185t168 127t239.5 46q136 0 241.5 -46t169.5 -127t97 -185t33 -226t-33 -226.5t-97 -185.5t-169.5 -127.5t-241.5 -46.5q-135 0 -239.5 46t-168 127.5t-96 186t-32.5 226.5zM399 561q0 -158 49 -240.5t164 -82.5t165 83t50 240 q0 159 -50 241.5t-165 82.5t-164 -82.5t-49 -241.5z" />
<glyph d="M145 952q299 50 437 168h231v-856h307v-264h-940v264h326v522q-157 -59 -322 -77z" />
<glyph d="M213 952q156 26 260 66t176 102h234v-1120h-310v786q-157 -59 -321 -77z" />
<glyph d="M59 874q104 132 230 201.5t297 69.5q139 0 247.5 -44.5t172 -133t63.5 -207.5q0 -79 -29 -148t-86 -127t-118.5 -102.5t-149.5 -95.5h463v-287h-1032v229q116 56 173 85t143.5 75.5t128.5 78.5t88.5 73.5t64.5 81.5t18 84q0 73 -51.5 117t-132.5 44q-83 0 -150.5 -47 t-111.5 -119z" />
<glyph d="M45 47l246 141q103 -186 315 -186q108 0 165.5 49t57.5 127q0 74 -60 116t-175 42h-113v250h111q98 0 150.5 39.5t52.5 107.5q0 65 -54 101t-139 36q-92 0 -166.5 -41.5t-120.5 -126.5l-237 134q185 309 536 309q133 0 242 -42t177.5 -130t68.5 -209q0 -193 -197 -287 q110 -39 175 -123.5t65 -195.5q0 -185 -143.5 -306.5t-389.5 -121.5q-392 0 -567 317z" />
<glyph d="M63 31v233q108 211 175 448.5t67 407.5h301q-2 -172 -67.5 -392.5t-180.5 -436.5h349v489h301v-489h178v-260h-178v-277h-310v277h-635z" />
<glyph d="M63 18l248 144q80 -158 271 -158q100 0 166.5 56.5t66.5 152.5q0 95 -64 152t-176 57q-159 0 -247 -111l-187 72l52 737h866v-289h-627l-26 -247q110 75 258 75q130 0 234.5 -50.5t168 -152.5t63.5 -239q0 -94 -33.5 -179.5t-97.5 -155t-169.5 -111t-237.5 -41.5 q-356 0 -529 288z" />
<glyph d="M88 514q0 166 63 324.5t199.5 308t333.5 258.5l223 -199q-135 -67 -265 -175.5t-167 -207.5q92 95 260 95q181 0 302.5 -122.5t121.5 -320.5q0 -219 -149 -359.5t-394 -140.5q-240 0 -384 142.5t-144 396.5zM410 463q0 -100 55.5 -159.5t159.5 -59.5q103 0 157 60t54 161 t-54 159t-157 58q-105 0 -160 -59.5t-55 -159.5z" />
<glyph d="M96 831v289h1045v-223q-87 -124 -142 -205.5t-133 -215.5t-123 -240t-77 -236t-29 -246h-348q2 93 21.5 190.5t47 180t71.5 173t81.5 156t91.5 145t87 124.5t81 108h-674z" />
<glyph d="M76 383q0 108 55 198.5t176 141.5q-81 41 -133.5 114t-52.5 175q0 177 136 277t357 100t357.5 -100t136.5 -277q0 -102 -51 -174.5t-135 -114.5q121 -51 176 -141.5t55 -198.5q0 -189 -147 -298.5t-392 -109.5q-246 0 -392 109.5t-146 298.5zM393 408q0 -95 60.5 -143 t160.5 -48t160 47.5t60 143.5q0 97 -59 145.5t-161 48.5t-161.5 -48.5t-59.5 -145.5zM434 987q0 -81 49.5 -122.5t128.5 -41.5q81 0 133 41.5t52 122.5q0 76 -52 118t-131 42q-80 0 -130 -41.5t-50 -118.5z" />
<glyph d="M70 645q0 218 149 359t393 141q240 0 384.5 -142.5t144.5 -396.5q0 -166 -63 -324.5t-199.5 -308t-333.5 -258.5l-223 199q135 67 265 175.5t167 207.5q-91 -94 -260 -94q-182 0 -303 121.5t-121 320.5zM393 655q0 -101 54 -159t157 -58q105 0 160 59.5t55 159.5 t-55.5 160t-159.5 60q-103 0 -157 -61t-54 -161z" />
<glyph d="M66 256l227 125q44 -75 118 -115.5t158 -50.5v227q-100 16 -174.5 40.5t-135.5 64.5t-92.5 100.5t-31.5 140.5q0 163 120.5 255t313.5 100v117h123v-121q264 -28 424 -234l-209 -133q-77 102 -215 129v-207q80 -15 137.5 -29.5t118.5 -41t98.5 -60.5t62 -86t24.5 -119 q0 -157 -117 -260t-324 -118v-138h-123v135q-342 17 -503 279zM432 809q0 -37 34.5 -58t102.5 -34v190q-61 -7 -99 -31t-38 -67zM692 215q59 10 98 36.5t39 65.5q0 44 -33 67.5t-104 37.5v-207z" />
<glyph d="M111 449v172h116q-32 91 -32 161q0 164 128.5 265.5t321.5 101.5q310 0 465 -272l-240 -113q-37 63 -84.5 97t-123.5 34q-70 0 -115 -39.5t-45 -101.5q0 -54 33 -133h294v-172h-251q0 -4 1 -13.5t1 -13.5q0 -40 -15.5 -76.5t-62.5 -83.5q62 21 104 21q47 0 117.5 -19.5 t95.5 -19.5q67 0 105 86l221 -129q-54 -119 -133 -170t-185 -51q-59 0 -164 38.5t-163 38.5q-59 0 -135.5 -22t-141.5 -62l-100 217q182 76 182 189q0 33 -12 70h-182z" />
<glyph d="M29 397v113h82q-2 16 -2 53v39h-80v113h96q45 198 195.5 315t365.5 117q342 0 510 -293l-248 -137q-37 88 -104 132t-152 44q-89 0 -152.5 -48t-95.5 -130h299v-113h-321q-2 -14 -2 -39q0 -37 2 -53h321v-113h-292q32 -78 94 -123t147 -45q179 0 260 183l252 -125 q-67 -148 -201.5 -230t-316.5 -82q-213 0 -362 114t-197 308h-98z" />
<glyph d="M82 1120h340l194 -403l193 403h336l-289 -516h205v-125h-277l-20 -35v-65h297v-125h-297v-254h-299v254h-301v125h301v63l-23 37h-278v125h209q-47 84 -145.5 258t-145.5 258z" />
<glyph d="M106 530q0 226 132 378t354 171v164h119v-164q269 -25 407 -264l-233 -139q-62 124 -174 147v-583q108 15 188 143l219 -147q-139 -228 -407 -250v-166h-119v166q-223 19 -354.5 169.5t-131.5 374.5zM414 532q0 -109 46.5 -184.5t131.5 -99.5v569q-86 -23 -132 -99.5 t-46 -185.5z" />
<glyph horiz-adv-x="1300" d="M55 309q0 209 250 309q-55 58 -81.5 113t-26.5 121q0 141 105.5 217t277.5 76q103 0 185 -27t135.5 -91t53.5 -157q0 -109 -68 -179.5t-186 -119.5l183 -174q54 76 86 172l229 -75q-50 -148 -149 -258l243 -236h-379l-67 66q-160 -91 -344 -91q-124 0 -224 37.5 t-161.5 114.5t-61.5 182zM336 344q0 -64 54 -107.5t142 -43.5q97 0 152 38l-246 244q-102 -50 -102 -131zM459 858q0 -39 25 -73t75 -78q156 66 156 151q0 44 -34.5 71t-92.5 27q-56 0 -92.5 -25t-36.5 -73z" />
<glyph horiz-adv-x="1396" d="M29 836q0 128 89 216.5t218 88.5q128 0 216.5 -88.5t88.5 -216.5t-89 -217t-216 -89q-129 0 -218 89t-89 217zM209 836q0 -54 36 -90.5t91 -36.5q54 0 89.5 36.5t35.5 90.5t-35.5 90.5t-89.5 36.5q-55 0 -91 -36.5t-36 -90.5zM236 0l704 1120h219l-704 -1120h-219z M758 287q0 128 89 216.5t218 88.5q127 0 216 -89t89 -216t-89 -216t-216 -89q-129 0 -218 88.5t-89 216.5zM938 287q0 -54 36 -90.5t91 -36.5q54 0 89.5 36.5t35.5 90.5t-35.5 91.5t-89.5 37.5q-55 0 -91 -37t-36 -92z" />
<glyph horiz-adv-x="2048" d="M29 836q0 128 89 216.5t218 88.5t217 -88.5t88 -216.5t-88 -217t-217 -89t-218 89t-89 217zM209 836q0 -54 36 -90.5t91 -36.5q54 0 89.5 36.5t35.5 90.5t-35.5 90.5t-89.5 36.5q-55 0 -91 -36.5t-36 -90.5zM236 0l704 1120h219l-702 -1120h-221zM758 287q0 128 89 216.5 t218 88.5q127 0 216 -89t89 -216t-89 -216t-216 -89q-129 0 -218 88.5t-89 216.5zM938 287q0 -54 36 -90.5t91 -36.5t90 36t35 91q0 54 -35.5 91.5t-89.5 37.5q-55 0 -91 -37t-36 -92zM1409 287q0 128 88.5 216.5t218.5 88.5q127 0 215 -88.5t88 -216.5t-88 -216.5 t-215 -88.5q-130 0 -218.5 88.5t-88.5 216.5zM1587 287q0 -55 36.5 -91t92.5 -36q54 0 89.5 36.5t35.5 90.5t-35.5 91.5t-89.5 37.5q-56 0 -92.5 -37t-36.5 -92z" />
<glyph horiz-adv-x="610" d="M150 0v268h311v-268h-311zM150 879v241h311v-241l-82 -498h-150z" />
<glyph horiz-adv-x="626" d="M158 0v242l80 495h149l82 -495v-242h-311zM158 852v268h311v-268h-311z" />
<glyph horiz-adv-x="1019" d="M53 981q196 164 447 164q199 0 321.5 -98.5t122.5 -268.5q0 -76 -29 -140t-79.5 -109t-111.5 -75.5t-132 -47.5v-37h-285v262q61 -15 119 -15q92 0 151.5 39t59.5 111q0 63 -51 102t-129 39q-126 0 -242 -104zM299 0v264h315v-264h-315z" />
<glyph horiz-adv-x="1024" d="M78 342q0 61 19.5 114.5t52.5 94t79 73.5t96.5 55t106.5 36v35h285v-261q-61 15 -121 15q-91 0 -151 -39t-60 -111q0 -64 51.5 -102.5t130.5 -38.5q126 0 242 104l162 -178q-196 -164 -447 -164q-200 0 -323 98t-123 269zM408 854v266h317v-266h-317z" />
<glyph horiz-adv-x="571" d="M129 0v1094h313v-1094h-313zM164 1184v180h244v-180h-244z" />
<glyph horiz-adv-x="874" d="M72 442q0 80 10.5 146t36 124.5t66.5 98.5t104 63t145 23q369 0 369 -455q0 -458 -369 -458q-102 0 -174.5 34.5t-112.5 99t-57.5 143.5t-17.5 181zM309 442q0 -61 5 -104.5t17.5 -82t38.5 -58t64 -19.5q39 0 65.5 19.5t40 58t18.5 82t5 104.5q0 60 -5 103.5t-18.5 81.5 t-40 58t-65.5 20q-38 0 -64 -20t-38.5 -58.5t-17.5 -81.5t-5 -103z" />
<glyph horiz-adv-x="741" d="M61 770q208 36 297 111h177v-680h172v-201h-617v201h207v430q-86 -26 -207 -39z" />
<glyph horiz-adv-x="651" d="M20 770q208 36 297 111h177v-881h-238v631q-86 -26 -207 -39z" />
<glyph horiz-adv-x="854" d="M45 678q64 101 156.5 160t210.5 59q153 0 248.5 -78.5t95.5 -214.5q0 -99 -68.5 -191.5t-228.5 -203.5h327v-209h-708v170q247 174 336.5 261.5t89.5 160.5q0 45 -32 71.5t-81 26.5q-47 0 -87.5 -28.5t-67.5 -83.5z" />
<glyph horiz-adv-x="864" d="M47 229l199 62q50 -103 190 -103q54 0 85.5 23t31.5 61q0 35 -31 54.5t-82 19.5h-114v195h110q36 0 66 19t30 54q0 38 -31.5 58t-76.5 20q-122 0 -180 -96l-183 82q65 113 157 166t218 53q140 0 236 -67.5t96 -192.5q0 -118 -94 -176q62 -26 92.5 -80.5t30.5 -116.5 q0 -121 -99 -200.5t-264 -79.5q-287 0 -387 245z" />
<glyph horiz-adv-x="856" d="M45 172v168q69 126 113 275t45 266h231q-3 -234 -151 -514h190v303h223v-303h117v-195h-117v-172h-227v172h-424z" />
<glyph horiz-adv-x="839" d="M45 154l168 114q69 -80 190 -80q54 0 94 30.5t40 82.5t-38 82.5t-106 30.5q-92 0 -157 -74l-138 53l31 488h600v-213h-410q-3 -49 -20 -133q64 45 162 45q141 0 229 -75t88 -216q0 -55 -22 -107.5t-65 -97.5t-116 -72.5t-165 -27.5q-224 0 -365 170z" />
<glyph horiz-adv-x="843" d="M66 334q0 288 278 547h332q-119 -81 -191 -149t-114 -148q50 37 129 37q132 0 216.5 -83.5t84.5 -222.5q0 -148 -101.5 -239.5t-265.5 -91.5q-171 0 -269.5 91t-98.5 259zM307 311q0 -60 33 -96.5t94 -36.5q60 0 92.5 36.5t32.5 98.5q0 63 -32.5 99.5t-92.5 36.5 q-61 0 -94 -38t-33 -100z" />
<glyph horiz-adv-x="778" d="M39 668v213h719v-160q-338 -405 -328 -721h-264q1 100 30 200t79.5 189t93 150t98.5 129h-428z" />
<glyph horiz-adv-x="872" d="M68 254q0 65 30.5 120.5t94.5 88.5q-97 63 -97 180q0 122 90 188t250 66q162 0 251 -66t89 -188q0 -114 -100 -178q129 -65 129 -211q0 -128 -98.5 -199t-270.5 -71t-270 71t-98 199zM303 266q0 -55 38 -82.5t95 -27.5t95 27t38 81q0 57 -38 86t-95 29t-95 -29t-38 -84z M330 635q0 -49 30 -72.5t74 -23.5q46 0 77.5 23.5t31.5 72.5q0 44 -31.5 66t-75.5 22q-45 0 -75.5 -22t-30.5 -66z" />
<glyph horiz-adv-x="847" d="M45 563q0 149 102 241.5t265 92.5q171 0 270.5 -92t99.5 -260q0 -291 -280 -545h-330q119 79 190.5 147t112.5 148q-51 -35 -127 -35q-134 0 -218.5 82.5t-84.5 220.5zM287 565q0 -62 32 -97.5t93 -35.5t95 37.5t34 97.5q0 61 -33.5 97t-95.5 36q-60 0 -92.5 -36 t-32.5 -99z" />
<glyph horiz-adv-x="874" d="M72 926q0 101 17.5 179.5t57.5 142.5t112.5 98t174.5 34q369 0 369 -454q0 -459 -369 -459q-82 0 -145 23.5t-104 63.5t-66.5 99.5t-36 125.5t-10.5 147zM309 926q0 -60 5 -103.5t17.5 -82t38.5 -58.5t64 -20q39 0 65.5 20t40 58.5t18.5 82t5 103.5q0 126 -27 194 t-102 68q-38 0 -64 -19.5t-38.5 -57.5t-17.5 -81t-5 -104z" />
<glyph horiz-adv-x="741" d="M59 1255q211 34 297 109h176v-680h175v-201h-617v201h207v430q-107 -28 -207 -39z" />
<glyph horiz-adv-x="651" d="M20 1255q207 33 297 109h177v-881h-238v631q-107 -28 -207 -39z" />
<glyph horiz-adv-x="851" d="M45 1161q63 102 156 160.5t211 58.5q154 0 249 -77.5t95 -212.5q0 -100 -68.5 -192t-228.5 -204h327v-211h-708v170q248 174 337 262t89 162q0 43 -32.5 70t-80.5 27q-46 0 -87 -29t-68 -84z" />
<glyph horiz-adv-x="862" d="M47 713l199 61q50 -102 190 -102q53 0 85 23.5t32 60.5q0 34 -31 53.5t-82 19.5h-114v195h110q36 0 66 19.5t30 54.5q0 39 -31.5 58.5t-76.5 19.5q-123 0 -180 -97l-183 82q65 113 157 166t218 53q140 0 236 -67.5t96 -192.5q0 -118 -94 -176q62 -26 92.5 -79.5 t30.5 -116.5q0 -120 -99 -200.5t-264 -80.5q-286 0 -387 246z" />
<glyph horiz-adv-x="856" d="M45 657v166q69 126 113 275t45 266h231q-3 -236 -151 -512h190v301h223v-301h117v-195h-117v-174h-227v174h-424z" />
<glyph horiz-adv-x="839" d="M45 637l168 115q69 -80 190 -80q54 0 94 30.5t40 81.5q0 52 -38 83.5t-106 31.5q-92 0 -157 -74l-138 54l31 485h600v-211h-410q-3 -48 -20 -133q64 45 162 45q141 0 229 -75.5t88 -215.5q0 -56 -22 -109t-65 -98t-116 -72.5t-165 -27.5q-224 0 -365 170z" />
<glyph horiz-adv-x="843" d="M66 817q0 292 278 547h332q-121 -82 -192 -149.5t-113 -147.5q50 37 129 37q132 0 216.5 -82.5t84.5 -220.5q0 -149 -101.5 -241.5t-265.5 -92.5q-171 0 -269.5 91t-98.5 259zM307 797q0 -61 32.5 -97t94.5 -36q60 0 92.5 36t32.5 99q0 61 -32.5 97t-92.5 36 q-61 0 -94 -37t-33 -98z" />
<glyph horiz-adv-x="776" d="M39 1153v211h719v-160q-338 -401 -328 -721h-264q1 100 30 200t79.5 189.5t93 150t98.5 130.5h-428z" />
<glyph horiz-adv-x="872" d="M68 737q0 66 30.5 122t94.5 89q-97 60 -97 180t90 186t250 66q162 0 251 -65.5t89 -186.5q0 -113 -100 -180q129 -64 129 -211q0 -128 -98.5 -199t-270.5 -71t-270 71t-98 199zM303 750q0 -55 38 -83t95 -28t95 28t38 83t-38 83.5t-95 28.5t-95 -28.5t-38 -83.5z M330 1118q0 -48 30 -72t74 -24q46 0 77.5 24t31.5 72q0 44 -31.5 67t-75.5 23q-45 0 -75.5 -23t-30.5 -67z" />
<glyph horiz-adv-x="847" d="M45 1047q0 149 102 241t265 92q172 0 271 -91t99 -259q0 -290 -280 -547h-330q119 79 190.5 147t112.5 148q-51 -35 -127 -35q-134 0 -218.5 83t-84.5 221zM287 1049q0 -61 32.5 -97.5t92.5 -36.5q61 0 95 38t34 98q0 61 -33.5 97t-95.5 36q-60 0 -92.5 -36t-32.5 -99z " />
<glyph horiz-adv-x="561" d="M117 856q121 105 121 219q-1 42 -33.5 109.5t-32.5 132.5v47h281v-176q0 -138 -56.5 -244t-185.5 -205z" />
<glyph horiz-adv-x="696" d="M205 1227q121 165 162 278l256 -43q-36 -83 -123.5 -165t-177.5 -130z" />
<glyph horiz-adv-x="526" d="M10 -352q120 168 158 272l258 -29q-33 -84 -121 -168t-178 -133z" />
<glyph horiz-adv-x="2072" d="M63 545q0 164 68.5 293.5t197 204.5t296.5 75q87 0 174 -24q26 180 166 285.5t348 105.5q375 0 375 -264v-127h313v-238h-313v-494q0 -114 112 -114q71 0 135 49l117 -225q-129 -97 -303 -97q-216 0 -313 138q-35 50 -48.5 114.5t-13.5 161.5v467h-172v238h172v86 q0 106 -125 106q-101 0 -157 -63t-56 -172q0 -114 76 -211l-242 -144q-78 156 -229 156q-115 0 -181.5 -85t-66.5 -220q0 -137 69 -221t187 -84q79 0 134.5 38t101.5 111l227 -151q-73 -121 -193.5 -193t-289.5 -72q-170 0 -300 74.5t-198 203.5t-68 292z" />
<glyph horiz-adv-x="2476" d="M35 242l213 141q58 -84 155 -125t203 -41q84 0 130 24t46 66q0 23 -12.5 40t-30 27.5t-52.5 19.5t-61.5 13t-76.5 11q-83 11 -146.5 26.5t-123 42.5t-97.5 64t-61 92t-23 125q0 114 64 194.5t166.5 118t232.5 37.5q108 0 227 -35v19q0 163 101 262.5t303 99.5 q387 0 387 -317v-178q131 149 334 149q150 0 264 -76t173.5 -205t59.5 -290q0 -249 -135.5 -410.5t-361.5 -161.5q-201 0 -334 148v-479h-315v1484q0 50 -28 81.5t-87 31.5q-77 0 -114.5 -48.5t-37.5 -119.5q0 -92 66 -178l-170 -150q-57 59 -143.5 96.5t-190.5 37.5 q-68 0 -114 -22.5t-46 -59.5q0 -22 14 -38t42.5 -25.5t61 -16t79.5 -14.5q30 -4 45 -7q105 -17 180.5 -41t139.5 -63.5t96.5 -100.5t32.5 -143q0 -171 -135.5 -272t-366.5 -101q-183 0 -326.5 67t-226.5 200zM1579 547q0 -130 66.5 -215.5t187.5 -85.5q120 0 184 86t64 215 q0 131 -64 216t-184 85q-122 0 -188 -85t-66 -216z" />
</font>
</defs>
</svg>
